Казкова країна достатку / Das Märchen vom Schlaraffenland (2016) 1080p Ukr/Ger

Нові коментарі

Нова тема   Відповісти
Автор Повідомлення
Anonymous 







2019-11-10 23:43  
Казкова країна достатку / Das Märchen vom Schlaraffenland (2016) 1080p Ukr/Ger

Казкова країна достатку / Das Märchen vom Schlaraffenland (2016) 1080p Ukr/Ger


Жанр: сімейний, казка
Країна: Німеччина



Кінокомпанія: Hessischer Rundfunk (HR)
Режисер: Карстен Фібелер
Актори: Бйорн Інгмар Бьоске, Клара Дойчман, Юдіт Енгель, Гайко Дойчман, Марія Мачке, Ганс Діль, Ісаак Дентлер

Сюжет:
Уявіть собі бідне маленьке німецьке містечко. Сірі будні населення сповнені важкою працею та бідністю. Одного разу до містечка приїздить загадковий чоловік, який називає себе майстер Фауерштайн. Він говорить, що може відвести будь-кого у країну достатку. Це країна, де мед тече рікою, а гуси і качки ходять засмажені по вулицям. Усі вулиці побудовані із цукерок, бубликів та тістечок. Там немає голоду і бідності. Там золото росте на деревах! Звичайно ж, майстру ніхто не вірить.

Окрім двох підлітків-бідняків: брата Пауля та сестри Магди. Але майстер хоче за свій подарунок 10 талерів. А у бідняцької родини таких грошей немає… Та одного разу Магда сильно захворіла. Пауль вирішує, що потрібно рятувати дівчинку за будь-яку ціну. І продає останнє, що в нього було – козу.

Чи зможе хлопець потрапити до казкової країни та врятувати свою маленьку сестричку?


Тривалість: 00:59:06
Якість:
Відео:
кодек:
розмір кадру: 1920 х 1080
бітрейт: 6487 кб/с

Аудіо # 1:
мова: українська
переклад: професійний дубльований
кодек: 2.0
бітрейт: 192 кб/с

Аудіо # 2:
мова: німецька
переклад: оригінал
кодек: 2.0
бітрейт: 192 кб/с

Джерело озвучення:
Info
General
Unique ID : 122130204984090176668431975439765247477 (0x5BE16C00EFEE8BBFB08B7936DFD695F5)
Complete name : Das Märchen vom Schlaraffenland (2016) 1080p [Ukr_Ger] [Hurtom].
Format :
Format version : Version 4
File size : 2.84 GiB
Duration : 59 min 7 s
Overall bit rate mode : Variable
Overall bit rate : 6 873 kb/s
Movie name : Казкова країна достатку (2016)
Encoded date : UTC 2019-11-10 21:14:03
Writing application : v30.1.0 ('Forever And More') 64-bit
Writing library : libebml v1.3.6 + v1.4.9
Cover : Yes
Attachments : cover.jpg

Video
ID : 1
Format : AVC
Format/Info : Advanced Video Codec
Format profile : [email protected]
Format settings : CABAC / 2 Ref Frames
Format settings, CABAC : Yes
Format settings, ReFrames : 2 frames
Codec ID : V_MPEG4/ISO/AVC
Duration : 59 min 6 s
Bit rate mode : Variable
Bit rate : 6 487 kb/s
Maximum bit rate : 8 200 kb/s
Width : 1 920 pixels
Height : 1 080 pixels
Display aspect ratio : 16:9
Frame rate mode : Constant
Frame rate : 50.000 FPS
Color space : YUV
Chroma subsampling : 4:2:0
Bit depth : 8 bits
Scan type : Progressive
Bits/(Pixel*Frame) : 0.063
Stream size : 2.68 GiB (94%)
Language : German
Default : Yes
Forced : No

Audio #1
ID : 2
Format : AC-3
Format/Info : Audio Coding 3
Commercial name : Dolby Digital
Codec ID : A_AC3
Duration : 59 min 7 s
Bit rate mode : Constant
Bit rate : 192 kb/s
Channel(s) : 2 channels
Channel layout : L R
Sampling rate : 48.0 kHz
Frame rate : 31.250 FPS (1536 SPF)
Bit depth : 16 bits
Compression mode : Lossy
Stream size : 81.2 MiB (3%)
Language : Ukrainian
Service kind : Complete Main
Default : Yes
Forced : Yes

Audio #2
ID : 3
Format : LC
Format/Info : Advanced Audio Codec Low Complexity
Codec ID : A_AAC-2
Duration : 59 min 6 s
Bit rate : 192 kb/s
Channel(s) : 2 channels
Channel layout : L R
Sampling rate : 48.0 kHz
Frame rate : 46.875 FPS (1024 SPF)
Compression mode : Lossy
Stream size : 79.8 MiB (3%)
Language : German
Default : No
Forced : No
Скріншоти





Джерело:


 Трекер:    Зареєстрований   

Завантажити / скачати фільм українською



відео для новачків



 Зареєстрований:   2019-11-10 23:43
 Розмір:   2.84 GB 
 Оцінка фільму:   9/10 (Голосів: 2)
   
igor911 
Модератор відео


З нами з: 18.01.08
Востаннє: 22.11.19
Повідомлень: 13668

2019-11-12 20:53  
Цитата:

- усталене скрізь скорочення назви якості відео, купленого та завантаженого з iTunes чи Amazon. Зазвичай без логотипів. Тут є логотип телеканалу, частота 50 кадрів (що нетипово для , зате типово для телебачення), тож це швидше якийсь HDTV(Rip).

Anonymous 







2019-11-12 23:18  
igor911 написано:
купленого та завантаженого з iTunes чи Amazon

чому тільки з цих сервісів? інші VOD'и не враховуються?
igor911 написано:
HDTV(Rip)

та ні, це відео з vod-сервісу каналу, тому й логотип присутній
ніхто нічого не ріпав (і не записував)

Ваш часовий пояс: GMT + 2 Години

Нова тема   Відповісти