Ненсі Дрю / Nancy Drew (2007) 1080p Ukr/Eng | Sub Eng

Нові коментарі

Нова тема   Відповісти
Автор Повідомлення
Anonymous 







2019-11-10 01:48  
Ненсі Дрю / Nancy Drew (2007) 1080p Ukr/Eng | Sub Eng

Ненсі Дрю / Nancy Drew (2007) 1080p Ukr/Eng | Sub Eng


Жанр: комедія, кримінальний, сімейний
Країна: США
Кінокомпанія: Warner Bros., Virtual Studios, Jerry Weintraub Productions
Режисер: Ендрю Флемінґ [Andrew Fleming]
Актори: Емма Робертс [Emma Roberts], Крейґ Джелліс [Craig Gellis], Річ Купер [Rich Cooper], Емі Брокнер [Amy Bruckner], Кей Панабейкер [Kay Panabaker], Кліфф Беміс [Cliff Bemis]

Сюжет:
Ненсі Дрю і її батько, Карсон Дрю, адвокат, переїжджають на два місяці з Рівер-Гайтс до Каліфорнії, де Карсон отримав тимчасову роботу. Вони знімають будинок, який вибрала Ненсі — особняк Голлівудської кінозірки Делії Дрейкотт, чиє вбивство, що сталося тут у 1981 році, до цих пір не було розкрито. Незважаючи на таємниці, батько просить Ненсі припинити свої розслідування і стати нормальним підлітком.
Всупереч обіцянці не займатися більше розслідуваннями, Ненсі береться за розгадку таємниці Делії Дрейкотт...

Фільм знято за мотивами популярної серії детективів Керолайн Кін про Ненсі Дрю.
Зйомки велися у 2006 році. На той момент Емма Робертс не мала прав і не могла водити родстер в сценах переслідування. Фільм знімався в декількох містах Каліфорнії, в тому числі в Саут-Пасадені, Лос-Анджелесі, Санта-Кларіті, Лонг-Біч, Ла-Каньяда-Флінтріджі і Бербанку. У фільмі Ненсі їздить в блакитному кабріолеті Nash Metropolitan.

Тривалість: 01:39:19
Якість:

Відео:
кодек:
розмір кадру: 1920 x 800
бітрейт: 8 763 кб/с

Аудіо # 1:
мова: українська
переклад: двоголосий закадровий
кодек: AC-3 5.1
бітрейт: 384 кб/с

Аудіо # 2:
мова: англійська
переклад: оригінал
кодек: E-AC-3 5.1
бітрейт: 640 кб/с

Субтитри # 1: (SDH)
мова: англійська
тип: програмні (м'які)
формат: *.srt


Info
Код:
General
Unique ID                                : 19376453276497154716868525704733712641 (0xE93C4E78BF6095BD8A8C669E5E2E101)
Complete name                            : Nancy Drew (2007) 1080p [UKR_ENG] [Hurtom].
Format                                   :
Format version                           : Version 4
File size                                : 6.79 GiB
Duration                                 : 1 h 39 min
Overall bit rate mode                    : Variable
Overall bit rate                         : 9 787 kb/s
Movie name                               : Ненсі Дрю / Nancy Drew (2007)
Encoded date                             : UTC 2019-11-09 23:44:17
Writing application                      : v20.0.0 ('I Am The Sun') 64-bit
Writing library                          : libebml v1.3.5 + v1.4.8
Cover                                    : Yes
Attachments                              : Cover.jpg

Video
ID                                       : 1
Format                                   : AVC
Format/Info                              : Advanced Video Codec
Format profile                           : [email protected]
Format settings                          : CABAC / 4 Ref Frames
Format settings, CABAC                   : Yes
Format settings, Reference frames        : 4 frames
Codec ID                                 : V_MPEG4/ISO/AVC
Duration                                 : 1 h 39 min
Bit rate mode                            : Variable
Bit rate                                 : 8 762 kb/s
Maximum bit rate                         : 15.0 Mb/s
Width                                    : 1 920 pixels
Height                                   : 800 pixels
Display aspect ratio                     : 2.40:1
Frame rate mode                          : Constant
Frame rate                               : 23.976 (24000/1001) FPS
Color space                              : YUV
Chroma subsampling                       : 4:2:0
Bit depth                                : 8 bits
Scan type                                : Progressive
Bits/(Pixel*Frame)                       : 0.238
Stream size                              : 6.08 GiB (90%)
Title                                    : Ненсі Дрю / Nancy Drew (2007)
Writing library                          : core 148 r2623 d5b2374
Encoding settings                        : cabac=1 / ref=4 / deblock=1:-1:-1 / analyse=0x3:0x133 / me=umh / subme=9 / psy=1 / psy_rd=1.00:0.15 / mixed_ref=1 / me_range=24 / chroma_me=1 / trellis=2 / 8x8dct=1 / cqm=0 / deadzone=21,11 / fast_pskip=1 / chroma_qp_offset=-3 / threads=25 / lookahead_threads=4 / sliced_threads=0 / nr=150 / decimate=1 / interlaced=0 / bluray_compat=0 / constrained_intra=0 / bframes=8 / b_pyramid=2 / b_adapt=2 / b_bias=0 / direct=3 / weightb=1 / open_gop=0 / weightp=2 / keyint=120 / keyint_min=61 / scenecut=0 / intra_refresh=0 / rc_lookahead=120 / rc=crf / mbtree=1 / crf=18.0 / qcomp=0.60 / qpmin=0 / qpmax=69 / qpstep=4 / vbv_maxrate=15000 / vbv_bufsize=31250 / crf_max=0.0 / nal_hrd=vbr / filler=0 / ip_ratio=1.40 / aq=3:1.00
Default                                  : Yes
Forced                                   : No
Color range                              : Limited
Color primaries                          : BT.709
Transfer characteristics                 : BT.709
Matrix coefficients                      : BT.709

Audio #1
ID                                       : 2
Format                                   : AC-3
Format/Info                              : Audio Coding 3
Commercial name                          : Dolby Digital
Codec ID                                 : A_AC3
Duration                                 : 1 h 39 min
Bit rate mode                            : Constant
Bit rate                                 : 384 kb/s
Channel(s)                               : 6 channels
Channel layout                           : L R C LFE Ls Rs
Sampling rate                            : 48.0 kHz
Frame rate                               : 31.250 FPS (1536 SPF)
Bit depth                                : 16 bits
Compression mode                         : Lossy
Stream size                              : 273 MiB (4%)
Title                                    : / 5.1 Ch / 384 kbps / ДЗ / Novy Kanal
Language                                 : Ukrainian
Service kind                             : Complete Main
Default                                  : Yes
Forced                                   : Yes

Audio #2
ID                                       : 3
Format                                   : E-AC-3
Format/Info                              : Enhanced AC-3
Commercial name                          : Dolby Digital Plus
Codec ID                                 : A_EAC3
Duration                                 : 1 h 39 min
Bit rate mode                            : Constant
Bit rate                                 : 640 kb/s
Channel(s)                               : 6 channels
Channel layout                           : L R C LFE Ls Rs
Sampling rate                            : 48.0 kHz
Frame rate                               : 31.250 FPS (1536 SPF)
Compression mode                         : Lossy
Stream size                              : 455 MiB (7%)
Title                                    : E- / 5.1 Ch / 640 kbps / Original
Language                                 : English
Service kind                             : Complete Main
Default                                  : No
Forced                                   : No

Text
ID                                       : 4
Format                                   : UTF-8
Codec ID                                 : S_TEXT/UTF8
Codec ID/Info                            : UTF-8 Plain Text
Duration                                 : 1 h 39 min
Bit rate                                 : 71 b/s
Count of elements                        : 2020
Stream size                              : 51.6 KiB (0%)
Title                                    : SDH
Language                                 : English
Default                                  : No
Forced                                   : No
Світлини




Джерело: &
Особиста оцінка: 0 - не дивився


 Трекер:    Зареєстрований   

Завантажити / скачати фільм українською



відео для новачків



 Зареєстрований:   2019-11-10 01:48
 Розмір:   6.79 GB 
 Оцінка фільму:   9.7/10 (Голосів: 6)
   
Інші релізи
   Ненсі Дрю / / Nancy Drew (2007) 720p Ukr/Eng | Sub Eng MakRA  3 / 0   3.33 GB   2019-11-09 23:46 
   Ненсі Дрю / Nancy Drew (2007) Ukr/Eng robotron005  2 / 0   1.45 GB   2011-06-02 11:51 
MakRA 
VIP


З нами з: 10.11.18
Востаннє: 21.11.19
Повідомлень: 534

2019-11-10 12:06  
Знайшов таки 1080p Happy, похвально! Я, правда, активно не шукав. Цікаво, з циклу "Три детективи..." у існує щось, чи лише DVD.
Ваш часовий пояс: GMT + 2 Години

Нова тема   Відповісти