Листоноша / The Postman (1997) Remux 1080p 2xUkr/Eng | Sub Eng

Нові коментарі

Нова тема   Відповісти
Автор Повідомлення
MakRA 
VIP


З нами з: 10.11.18
Востаннє: 18.11.19
Повідомлень: 525

2019-11-10 01:10  
Листоноша / The Postman (1997) Remux 1080p 2xUkr/Eng | Sub Eng


Український постер:

Жанр: постапокаліптика, екшн, пригодницький, фантастика, драма
Країна: США



Кінокомпанія: Tig Productions, Warner Bros.
Режисер: Кевін Костнер [Kevin Costner]
Актори: Кевін Костнер [Kevin Costner], Джованні Рібізі [Giovanni Ribisi], Джо Сантос [Joe Santos], Рекс Лінн [Rex Linn], Пеггі Ліптон [Peggy Lipton], Скотт Бейрстоу [Scott Bairstow], Роберта Максвелл [Roberta Maxwell]

Сюжет:
Минуло кілька десятиліть після ядерної війни. Головний герой - самотній кочовик, що подорожує на мулі рівнинами штату Орегон. Щоб не померти від голоду, він робить те, що вміє - дає вистави під відкритим небом, граючи Шекспіра. Тим часом в окрузі орудує банда неофашистів під проводом суворого генерала Бетлхема. Вони регулярно збирають данину з навколишніх селищ - беруть цінні речі, набирають рекрутів. Одним з таких новобранців і стає головний герой. Не бажаючи служити бандитам, герой тікає. Знайшовши візок з трупом листоноші, він надягає його форму і проголошує себе посланцем відроджених Сполучених Штатів зі столицею в Міннеаполісі ...


Тривалість: 02:57:50
Якість: Remux 1080p
Відео:
кодек: VC-1
розмір кадру: 1920 х 1080
бітрейт: 20,3 Mб/с

Аудіо # 1:
мова: українська
переклад: багатоголосий закадровий
кодек: 2.0
бітрейт: 192 кб/с
Про озвучення:
Ролі озвучили:Володимир Терещук, Юрій Гребельник, Михайло Жонін і один жіночий.
Аудіо # 2:
мова: українська
переклад: багатоголосий закадровий
кодек: 2.0
бітрейт: 192 кб/с
Про озвучення:
Ролі озвучили:Олег Лепенець, Владислав Пупков, Андрій Бурлуцький і Тетяна Антонова?.
Аудіо # 3:
мова: англійська
переклад: оригінал
кодек: TrueHD 5.1
бітрейт: 1630 кб/с

Аудіо # 4:
мова: англійська
переклад: оригінал
кодек: 5.1
бітрейт: 640 кб/с

Субтитри: (Full)
мова: англійська
тип: пререндерні
формат: *.pgs
Info
General
Unique ID : 213966126881680101375912391929540371415 (0xA0F860889DC2FCCC78564A00D0CBE3D7)
Complete name : I:\+ Фільми в HD\фантастика, екшн, пригоди\The Postman (1997) Remux 1080p UkrEng Sub Eng [Hurtom].
Format :
Format version : Version 4
File size : 28.6 GiB
Duration : 2 h 57 min
Overall bit rate mode : Variable
Overall bit rate : 23.0 Mb/s
Movie name : Листоноша / The Postman (1997) Remux 1080p Ukr/Eng | Sub Eng [Hurtom]
Encoded date : UTC 2019-11-09 22:19:09
Writing application : v25.0.0 ('Prog Noir') 64-bit
Writing library : libebml v1.3.6 + v1.4.9
Cover : Yes
Attachments : cover.jpg

Video
ID : 1
Format : VC-1
Format profile : [email protected]
Codec ID : V_MS/VFW/FOURCC / WVC1
Codec ID/Hint : Microsoft
Duration : 2 h 57 min
Bit rate : 20.3 Mb/s
Width : 1 920 pixels
Height : 1 080 pixels
Display aspect ratio : 16:9
Frame rate mode : Constant
Frame rate : 23.976 (24000/1001) FPS
Color space : YUV
Chroma subsampling : 4:2:0
Bit depth : 8 bits
Scan type : Progressive
Compression mode : Lossy
Bits/(Pixel*Frame) : 0.409
Stream size : 25.2 GiB (88%)
Title : The Postman (1997) Remux 1080p Ukr/Eng | Sub Eng [Hurtom]
Language : Ukrainian
Default : Yes
Forced : Yes

Audio #1
ID : 2
Format : AC-3
Format/Info : Audio Coding 3
Commercial name : Dolby Digital
Codec ID : A_AC3
Duration : 2 h 57 min
Bit rate mode : Constant
Bit rate : 192 kb/s
Channel(s) : 2 channels
Channel layout : L R
Sampling rate : 48.0 kHz
Frame rate : 31.250 FPS (1536 SPF)
Bit depth : 16 bits
Compression mode : Lossy
Stream size : 244 MiB (1%)
Title : MVO [ICTV] 2.0
Language : Ukrainian
Service kind : Complete Main
Default : Yes
Forced : Yes

Audio #2
ID : 3
Format : AC-3
Format/Info : Audio Coding 3
Commercial name : Dolby Digital
Codec ID : A_AC3
Duration : 2 h 57 min
Bit rate mode : Constant
Bit rate : 192 kb/s
Channel(s) : 2 channels
Channel layout : L R
Sampling rate : 48.0 kHz
Frame rate : 31.250 FPS (1536 SPF)
Bit depth : 16 bits
Compression mode : Lossy
Stream size : 244 MiB (1%)
Title : MVO [K1] [НТН] 2.0
Language : Ukrainian
Service kind : Complete Main
Default : No
Forced : No

Audio #3
ID : 4
Format : MLP FBA
Format/Info : Meridian Lossless Packing FBA
Commercial name : Dolby TrueHD
Codec ID : A_TRUEHD
Duration : 2 h 57 min
Bit rate mode : Variable
Bit rate : 1 630 kb/s
Maximum bit rate : 3 069 kb/s
Channel(s) : 6 channels
Channel layout : L R C LFE Ls Rs
Sampling rate : 48.0 kHz
Frame rate : 1 200.000 FPS (40 SPF)
Compression mode : Lossless
Delay relative to video : 42 ms
Stream size : 2.02 GiB (7%)
Title : Original TrueHD 5.1
Language : English
Default : No
Forced : No

Audio #4
ID : 5
Format : AC-3
Format/Info : Audio Coding 3
Commercial name : Dolby Digital
Codec ID : A_AC3
Duration : 2 h 57 min
Bit rate mode : Constant
Bit rate : 640 kb/s
Channel(s) : 6 channels
Channel layout : L R C LFE Ls Rs
Sampling rate : 48.0 kHz
Frame rate : 31.250 FPS (1536 SPF)
Bit depth : 16 bits
Compression mode : Lossy
Delay relative to video : 42 ms
Stream size : 814 MiB (3%)
Title : Original 5.1
Language : English
Service kind : Complete Main
Default : No
Forced : No

Text
ID : 6
Format : PGS
Muxing mode : zlib
Codec ID : S_HDMV/PGS
Codec ID/Info : Picture based subtitle format used on BDs/HD-DVDs
Duration : 2 h 57 min
Bit rate : 19.7 kb/s
Count of elements : 3600
Stream size : 25.0 MiB (0%)
Title : Eng (Full)
Language : English
Default : No
Forced : No
Скріншоти
Джерело: &
Висловлюю подяки: п. sando7 та п. dvorsky - запис з ТБ, п. taraskill1 - зведення доріжки №1, п. _oles - зведення доріжки №2.
Виготовлення постеру п. hellforces
Особиста оцінка: 10 - без зайвих вагань рекомендую всім!


Золотий реліз (завантажене не впливає на рейтинг)
 Трекер:    Зареєстрований   

Завантажити / скачати фільм українською



відео для новачків



 Зареєстрований:   2019-11-10 01:10
 Розмір:   28.62 GB 
 Оцінка фільму:   9.9/10 (Голосів: 7)
   
Інші релізи
   Листоноша / The Postman (1997) AVC 2xUkr/Eng | Sub Eng Maters  10 / 3   3.09 GB   2019-11-14 19:05 
   Листоноша / The Postman (1997) 2xUkr taraskill1  6 / 0   2.91 GB   2014-11-22 10:18 
   Листоноша / The Postman (1997) Ukr/Eng | Sub Eng _oles  4 / 2   3.47 GB   2013-12-11 13:16 
Ваш часовий пояс: GMT + 2 Години

Нова тема   Відповісти