Руйнівник / Demolition Man (1993) 720 2xUkr/Eng | Sub Eng

Нові коментарі

Нова тема   Відповісти
Автор Повідомлення
Anonymous 







2019-11-10 00:49  
Руйнівник / Demolition Man (1993) 720 2xUkr/Eng | Sub Eng

Руйнівник / Demolition Man (1993) 720 2xUkr/Eng | Sub Eng


Жанр: фантастика, бойовик, трилер, кримінальний
Країна: США



Кінокомпанія: Silver Pictures, Warner Bros. Pictures
Режисер: Марко Брамбілла / Marco Brambilla
Актори: Сільвестр Сталлоне / Sylvester Stallone, Веслі Снайпс / Wesley Snipes, Сандра Баллок / Sandra Bullock, Бенджамін Бретт / Benjamin Bratt, Роб Шнайдер / Rob Schneider, Джек Блeк / Jack Black, Боб Ґантон, Ґленн Шедікс, Деніс Лірі, Гранд Л. Буш, Пет Скіппер та інші

Сюжет:
У 2032-му році у кріов'язниці після 35-річнї заморозки пробуджується один із найнебезпечніших злочинців Саймон Фенікс і вирішує взяти приступом спокійний, вільний від будь-якого насильства Лос-Анджелес. Нездатна впоратися з жорстокими звичками 1990-х років, властивими Феніксу, офіційна влада шукає поліцейського з тих років, який зміг би узяти гору над злочинцем 90-х. Для цього вони розморожують сержанта Джона Спартана, несправедливо засудженого до покарання у кріов'язниці за його останню сутичку з Феніксом ...


Тривалість: 01:55:02
Якість:

Відео:
кодек:
розмір кадру: 1280 x 534
бітрейт: 5700 кб/с

Аудіо # 1:
мова: українська
переклад: багатоголосий закадровий , ,
кодек: AC-3 2.0
бітрейт: 192 кб/с

Аудіо # 2:
мова: українська
переклад: двоголосий закадровий
кодек: AC-3 2.0
бітрейт: 192 кб/с

Аудіо # 3:
мова: англійська
переклад: оригінал
кодек: 5.1
бітрейт: 1510 кб/с

Субтитри # 1: (Forced)
мова: українська
тип: програмні (м'які)
формат: *.srt

Субтитри # 2-3: (Full, SDH)
мова: англійська
тип: програмні (м'які)
формат: *.srt


Info
Код:
General
Unique ID                                : 177478751676809295267310364548179145318 (0x85852A0B48C1CCE9FD839400CDC3B266)
Complete name                            : Demolition Man (1993) 720p [2xUKR_ENG] [Hurtom].
Format                                   :
Format version                           : Version 4
File size                                : 6.10 GiB
Duration                                 : 1 h 55 min
Overall bit rate                         : 7 596 kb/s
Movie name                               : Руйнівник / Demolition Man (1993)
Encoded date                             : UTC 2019-11-09 22:25:01
Writing application                      : v20.0.0 ('I Am The Sun') 64-bit
Writing library                          : libebml v1.3.5 + v1.4.8
Cover                                    : Yes
Attachments                              : Cover.jpg

Video
ID                                       : 1
Format                                   : AVC
Format/Info                              : Advanced Video Codec
Format profile                           : [email protected]
Format settings                          : CABAC / 12 Ref Frames
Format settings, CABAC                   : Yes
Format settings, Reference frames        : 12 frames
Codec ID                                 : V_MPEG4/ISO/AVC
Duration                                 : 1 h 55 min
Bit rate                                 : 5 700 kb/s
Width                                    : 1 280 pixels
Height                                   : 534 pixels
Display aspect ratio                     : 2.40:1
Frame rate mode                          : Constant
Frame rate                               : 23.976 (24000/1001) FPS
Color space                              : YUV
Chroma subsampling                       : 4:2:0
Bit depth                                : 8 bits
Scan type                                : Progressive
Bits/(Pixel*Frame)                       : 0.348
Stream size                              : 4.58 GiB (75%)
Title                                    : Руйнівник / Demolition Man (1993)
Writing library                          : core 148 r2744kMod b97ae06
Encoding settings                        : cabac=1 / ref=12 / deblock=1:-3:-3 / analyse=0x3:0x113 / me=umh / subme=11 / psy=1 / fade_compensate=0.00 / psy_rd=1.00:0.05 / mixed_ref=1 / me_range=32 / chroma_me=1 / trellis=2 / 8x8dct=1 / cqm=0 / deadzone=21,11 / fast_pskip=0 / chroma_qp_offset=-3 / threads=12 / lookahead_threads=3 / sliced_threads=0 / nr=0 / decimate=0 / interlaced=0 / bluray_compat=0 / constrained_intra=0 / bframes=10 / b_pyramid=2 / b_adapt=2 / b_bias=0 / direct=3 / weightb=1 / open_gop=0 / weightp=2 / keyint=240 / keyint_min=23 / scenecut=40 / intra_refresh=0 / rc_lookahead=60 / rc=2pass / mbtree=0 / bitrate=5700 / ratetol=1.0 / qcomp=0.60 / qpmin=0 / qpmax=39 / qpstep=4 / cplxblur=20.0 / qblur=0.5 / vbv_maxrate=50000 / vbv_bufsize=62500 / nal_hrd=none / filler=0 / ip_ratio=1.40 / pb_ratio=1.30 / aq=1:0.70
Language                                 : English
Default                                  : Yes
Forced                                   : No
Color range                              : Limited
Color primaries                          : BT.709
Transfer characteristics                 : BT.709
Matrix coefficients                      : BT.709

Audio #1
ID                                       : 2
Format                                   : AC-3
Format/Info                              : Audio Coding 3
Commercial name                          : Dolby Digital
Codec ID                                 : A_AC3
Duration                                 : 1 h 55 min
Bit rate mode                            : Constant
Bit rate                                 : 192 kb/s
Channel(s)                               : 2 channels
Channel layout                           : L R
Sampling rate                            : 48.0 kHz
Frame rate                               : 31.250 FPS (1536 SPF)
Bit depth                                : 16 bits
Compression mode                         : Lossy
Stream size                              : 158 MiB (3%)
Title                                    : / 5.1 Ch / 384 kbps / БЗ / Novy Kanal, ICTV, NTN
Language                                 : Ukrainian
Service kind                             : Complete Main
Default                                  : Yes
Forced                                   : Yes

Audio #2
ID                                       : 3
Format                                   : AC-3
Format/Info                              : Audio Coding 3
Commercial name                          : Dolby Digital
Codec ID                                 : A_AC3
Duration                                 : 1 h 55 min
Bit rate mode                            : Constant
Bit rate                                 : 192 kb/s
Channel(s)                               : 2 channels
Channel layout                           : L R
Sampling rate                            : 48.0 kHz
Frame rate                               : 31.250 FPS (1536 SPF)
Bit depth                                : 16 bits
Compression mode                         : Lossy
Stream size                              : 158 MiB (3%)
Title                                    : / 2.0 Ch / 192 kbps / ДЗ / 1+1
Language                                 : Ukrainian
Service kind                             : Complete Main
Default                                  : No
Forced                                   : No

Audio #3
ID                                       : 4
Format                                   :
Format/Info                              : Digital Theater Systems
Codec ID                                 : A_DTS
Duration                                 : 1 h 55 min
Bit rate mode                            : Constant
Bit rate                                 : 1 509 kb/s
Channel(s)                               : 6 channels
Channel layout                           : C L R Ls Rs LFE
Sampling rate                            : 48.0 kHz
Frame rate                               : 93.750 FPS (512 SPF)
Bit depth                                : 24 bits
Compression mode                         : Lossy
Delay relative to video                  : 11 ms
Stream size                              : 1.21 GiB (20%)
Title                                    : / 5.1 Ch / 1509 kbps / Original
Language                                 : English
Default                                  : No
Forced                                   : No

Text #1
ID                                       : 5
Format                                   : UTF-8
Codec ID                                 : S_TEXT/UTF8
Codec ID/Info                            : UTF-8 Plain Text
Duration                                 : 1 h 54 min
Bit rate                                 : 0 b/s
Count of elements                        : 14
Stream size                              : 399 Bytes (0%)
Title                                    : Forced
Language                                 : Ukrainian
Default                                  : Yes
Forced                                   : Yes

Text #2
ID                                       : 6
Format                                   : UTF-8
Codec ID                                 : S_TEXT/UTF8
Codec ID/Info                            : UTF-8 Plain Text
Duration                                 : 1 h 49 min
Bit rate                                 : 57 b/s
Count of elements                        : 1466
Stream size                              : 46.0 KiB (0%)
Title                                    : Full
Language                                 : English
Default                                  : No
Forced                                   : No

Text #3
ID                                       : 7
Format                                   : UTF-8
Codec ID                                 : S_TEXT/UTF8
Codec ID/Info                            : UTF-8 Plain Text
Duration                                 : 1 h 54 min
Bit rate                                 : 65 b/s
Count of elements                        : 1561
Stream size                              : 54.8 KiB (0%)
Title                                    : SDH
Language                                 : English
Default                                  : No
Forced                                   : No

Menu
00:00:00.000                             : en:Los Angeles 1996: Send in the Maniac
00:02:50.211                             : en:A Hot Time
00:07:10.847                             : en:A Cold Sentence
00:11:30.523                             : en:2032: Lenina Lacks Stimulus
00:16:46.213                             : en:One Parole Hearing = 4 Mdk's
00:22:59.878                             : en:No Respect for the Law
00:28:39.467                             : en:The Governor's Problem
00:31:03.987                             : en:Legend of the Demolition Man
00:32:43.878                             : en:Wake-Up Call
00:37:45.554                             : en:"So Much for the Sea Shells"
00:41:26.775                             : en:Violence in the Hall
00:47:32.015                             : en:Blast From the Past
00:51:13.320                             : en:"Don't You Have Someone to Kill?"
00:54:35.313                             : en:The Chief's Plan; What All Restaurants Are
00:57:18.017                             : en:Dining with the Governor
01:00:17.196                             : en:Attack of the Scraps
01:03:16.542                             : en:After-Dinner Chats
01:07:41.932                             : en:21St Century Sex
01:14:57.326                             : en:A Gift for Lenina; Phoenix's Programming
01:17:39.446                             : en:Confronting Cocteau
01:19:54.331                             : en:Wasteland
01:24:09.252                             : en:Friendly's Manifesto
01:27:03.885                             : en:"Let's Bring Back the Good Old Days"
01:28:04.904                             : en:Unwelcome Guests
01:30:25.962                             : en:Pedal to the Metal
01:34:50.309                             : en:Unexpected Allies
01:37:10.825                             : en:End of the Cocteau Plan
01:41:16.904                             : en:Cryoprison Chaos
01:45:52.179                             : en:"This Is the Best Day of My Life"
01:48:42.641                             : en:"I Think I'm Gonna Like the Future"
Світлини




Джерело: &
Особиста оцінка: 0 - не дивився

За українські доріжки подяка панам robotron005, servus12, xslim'у та ratbol'у. За постер подяка п.zgryvus.


Срібний реліз (на рейтинг впливає 50% завантаженого)
 Трекер:    Зареєстрований   

Завантажити / скачати фільм українською



відео для новачків



 Зареєстрований:   2019-11-10 00:49
 Розмір:   6.1 GB 
 Оцінка фільму:   9.7/10 (Голосів: 9)
   
Інші релізи
   Руйнівник / Demolition Man (1993) AVC 2xUkr/Eng | Sub Eng igor911  4 / 0   2.13 GB   2019-07-09 18:57 
   Руйнівник / Demolition Man (1993) Remux 1080p 2хUkr/Eng | Sub Eng boroznaya  4 / 0   19.33 GB   2018-07-15 07:52 
   Руйнівник / Demolition Man (1993) 1080p 2хUkr/Eng | Sub Eng RAD0N  4 / 0   9.15 GB   2016-02-23 09:15 
   Руйнівник / Demolition Man (1993) 2xUkr/Eng | Sub Eng robotron005  5 / 0   2.14 GB   2014-02-12 22:04 
Ваш часовий пояс: GMT + 2 Години

Нова тема   Відповісти