Мовчання / The Silence (2019) 720p Eng | Sub Ukr/Eng

Нові коментарі

Нова тема   Відповісти
Автор Повідомлення
Anonymous 







2019-11-10 00:46  
Мовчання / The Silence (2019) 720p Eng | Sub Ukr/Eng

Мовчання / The Silence (2019) 720p Eng | Sub Ukr/Eng


Жанр: жахи, трилер
Країна: Німеччина
Кінокомпанія: Constantin Film, EMJAG Productions, Netflix
Режисер: Джон Р. Леонетті / John R. Leonetti
Актори: Кірнан Шіпка, Стенлі Туччі, Міранда Отто, Джон Корбетт

Сюжет:
Спелеологи відкрили стародавню печеру в Пенсільванії та випустили на волю агресивних кровожерливих істот, схожих на кажанів. Тварюки сліпі, орієнтуються лише на звук, літають за допомогою шкірястих крил і досить активно розмножуються, тому швидко поширюються по Північній Америці, несучи хаос, смерть і знищуючи цивілізацію.
Посеред цього хаосу родина 16-річної глухої дівчини-підлітка бореться за виживання.

Тривалість: 01:30:48
Якість:

Відео:
кодек:
розмір кадру: 1280 x 536
бітрейт: 6 255 кб/с

Аудіо # 1:
мова: англійська
переклад: оригінал
кодек: 5.1
бітрейт: 1510 кб/с

Субтитри # 1: (Full by SubAutumn)
мова: українська
тип: програмні (м'які)
формат: *.srt

Субтитри # 2-4: (Forced, Full, SDH)
мова: англійська
тип: програмні (м'які)
формат: *.srt


Info
Код:
General
Unique ID                                : 49108170922074321590326560381902079181 (0x24F1E3C2AD68381F1DB713FA721544CD)
Complete name                            : The Silence (2019) 720p [ENG] [Hurtom].
Format                                   :
Format version                           : Version 4
File size                                : 4.93 GiB
Duration                                 : 1 h 30 min
Overall bit rate                         : 7 767 kb/s
Movie name                               : Мовчання / The Silence (2019)
Encoded date                             : UTC 2019-11-09 22:35:52
Writing application                      : v20.0.0 ('I Am The Sun') 64-bit
Writing library                          : libebml v1.3.5 + v1.4.8
Cover                                    : Yes
Attachments                              : Cover.jpg

Video
ID                                       : 1
Format                                   : AVC
Format/Info                              : Advanced Video Codec
Format profile                           : [email protected]
Format settings                          : CABAC / 12 Ref Frames
Format settings, CABAC                   : Yes
Format settings, Reference frames        : 12 frames
Codec ID                                 : V_MPEG4/ISO/AVC
Duration                                 : 1 h 30 min
Bit rate                                 : 6 255 kb/s
Width                                    : 1 280 pixels
Height                                   : 536 pixels
Display aspect ratio                     : 2.40:1
Frame rate mode                          : Constant
Frame rate                               : 23.976 (23976/1000) FPS
Color space                              : YUV
Chroma subsampling                       : 4:2:0
Bit depth                                : 8 bits
Scan type                                : Progressive
Bits/(Pixel*Frame)                       : 0.380
Stream size                              : 3.97 GiB (81%)
Title                                    : Мовчання / The Silence (2019)
Writing library                          : core 157 r2945 72db437
Encoding settings                        : cabac=1 / ref=12 / deblock=1:-3:-3 / analyse=0x3:0x133 / me=umh / subme=11 / psy=1 / psy_rd=1.00:0.00 / mixed_ref=1 / me_range=32 / chroma_me=1 / trellis=2 / 8x8dct=1 / cqm=0 / deadzone=21,11 / fast_pskip=0 / chroma_qp_offset=-2 / threads=12 / lookahead_threads=2 / sliced_threads=0 / nr=0 / decimate=1 / interlaced=0 / bluray_compat=0 / constrained_intra=0 / bframes=8 / b_pyramid=2 / b_adapt=2 / b_bias=0 / direct=3 / weightb=1 / open_gop=0 / weightp=2 / keyint=240 / keyint_min=23 / scenecut=40 / intra_refresh=0 / rc_lookahead=60 / rc=2pass / mbtree=0 / bitrate=6255 / ratetol=1.0 / qcomp=0.60 / qpmin=0 / qpmax=69 / qpstep=4 / cplxblur=20.0 / qblur=0.5 / vbv_maxrate=30000 / vbv_bufsize=33000 / nal_hrd=none / filler=0 / ip_ratio=1.40 / pb_ratio=1.30 / aq=3:0.80 / zones=121855,130640,q=40
Language                                 : English
Default                                  : Yes
Forced                                   : No

Audio
ID                                       : 2
Format                                   :
Format/Info                              : Digital Theater Systems
Codec ID                                 : A_DTS
Duration                                 : 1 h 30 min
Bit rate mode                            : Constant
Bit rate                                 : 1 509 kb/s
Channel(s)                               : 6 channels
Channel layout                           : C L R Ls Rs LFE
Sampling rate                            : 48.0 kHz
Frame rate                               : 93.750 FPS (512 SPF)
Bit depth                                : 24 bits
Compression mode                         : Lossy
Stream size                              : 980 MiB (19%)
Title                                    : / 5.1 Ch / 1509 kbps / Original
Language                                 : English
Default                                  : Yes
Forced                                   : No

Text #1
ID                                       : 3
Format                                   : UTF-8
Codec ID                                 : S_TEXT/UTF8
Codec ID/Info                            : UTF-8 Plain Text
Duration                                 : 1 h 29 min
Bit rate                                 : 36 b/s
Count of elements                        : 595
Stream size                              : 23.6 KiB (0%)
Title                                    : Full by SubAutumn
Language                                 : Ukrainian
Default                                  : Yes
Forced                                   : Yes

Text #2
ID                                       : 4
Format                                   : UTF-8
Codec ID                                 : S_TEXT/UTF8
Codec ID/Info                            : UTF-8 Plain Text
Duration                                 : 46 min 10 s
Bit rate                                 : 3 b/s
Count of elements                        : 61
Stream size                              : 1.18 KiB (0%)
Title                                    : Forced
Language                                 : English
Default                                  : No
Forced                                   : No

Text #3
ID                                       : 5
Format                                   : UTF-8
Codec ID                                 : S_TEXT/UTF8
Codec ID/Info                            : UTF-8 Plain Text
Duration                                 : 1 h 23 min
Bit rate                                 : 26 b/s
Count of elements                        : 592
Stream size                              : 15.9 KiB (0%)
Title                                    : Full
Language                                 : English
Default                                  : No
Forced                                   : No

Text #4
ID                                       : 6
Format                                   : UTF-8
Codec ID                                 : S_TEXT/UTF8
Codec ID/Info                            : UTF-8 Plain Text
Duration                                 : 1 h 24 min
Bit rate                                 : 41 b/s
Count of elements                        : 923
Stream size                              : 25.5 KiB (0%)
Title                                    : SDH
Language                                 : English
Default                                  : No
Forced                                   : No

Menu
00:00:00.000                             : en:Chapter 1
00:07:22.775                             : en:Chapter 2
00:12:34.211                             : en:Chapter 3
00:19:55.777                             : en:Chapter 4
00:25:23.730                             : en:Chapter 5
00:31:16.666                             : en:Chapter 6
00:36:58.216                             : en:Chapter 7
00:44:31.293                             : en:Chapter 8
00:50:23.437                             : en:Chapter 9
00:58:07.942                             : en:Chapter 10
01:03:35.603                             : en:Chapter 11
01:07:56.655                             : en:Chapter 12
01:15:00.287                             : en:Chapter 13
01:20:15.560                             : en:Chapter 14
01:24:45.205                             : en:Chapter 15
Світлини




Джерело: &
Особиста оцінка: 0 - не дивився


 Трекер:    Зареєстрований   

Завантажити / скачати фільм українською



відео для новачків



 Зареєстрований:   2019-11-10 00:46
 Розмір:   4.93 GB 
 Оцінка фільму:   8.2/10 (Голосів: 5)
   
Інші релізи
   Мовчання / The Silence (2019) 1080p H.265 Eng | Sub Ukr/Eng -Star-Lord-  3 / 0   5.26 GB   2019-11-12 16:49 
   Мовчання / The Silence (2019) 1080p Eng | Sub Ukr/Eng -Star-Lord-  0 / 1   7.5 GB   2019-11-10 00:45 
   Мовчання / The Silence (2019) 720p Eng | Sub Ukr/Eng/Multi igor911  12 / 0   2.95 GB   2019-06-18 14:33 
Ваш часовий пояс: GMT + 2 Години

Нова тема   Відповісти