Ненсі Дрю / / Nancy Drew (2007) 720p Ukr/Eng | Sub Eng

Нові коментарі

Нова тема   Відповісти
Автор Повідомлення
MakRA 
VIP


З нами з: 10.11.18
Востаннє: 21.11.19
Повідомлень: 534

2019-11-09 23:46  
Ненсі Дрю / / Nancy Drew (2007) 720p Ukr/Eng | Sub Eng



Жанр: комедія, кримінальний, сімейний
Країна: США



Кінокомпанія: Warner Bros., Virtual Studios, Jerry Weintraub Productions
Режисер: Ендрю Флемінґ [Andrew Fleming]
Актори: Емма Робертс [Emma Roberts], Крейґ Джелліс [Craig Gellis], Річ Купер [Rich Cooper], Емі Брокнер [Amy Bruckner], Кей Панабейкер [Kay Panabaker], Кліфф Беміс [Cliff Bemis]

Сюжет:
Ненсі Дрю і її батько, Карсон Дрю, адвокат, переїжджають на два місяці з Рівер-Гайтс до Каліфорнії, де Карсон отримав тимчасову роботу. Вони знімають будинок, який вибрала Ненсі — особняк Голлівудської кінозірки Делії Дрейкотт, чиє вбивство, що сталося тут у 1981 році, до цих пір не було розкрито. Незважаючи на таємниці, батько просить Ненсі припинити свої розслідування і стати нормальним підлітком.
Всупереч обіцянці не займатися більше розслідуваннями, Ненсі береться за розгадку таємниці Делії Дрейкотт...

Фільм знято за мотивами популярної серії детективів Керолайн Кін про Ненсі Дрю.
Зйомки велися у 2006 році. На той момент Емма Робертс не мала прав і не могла водити родстер в сценах переслідування. Фільм знімався в декількох містах Каліфорнії, в тому числі в Саут-Пасадені, Лос-Анджелесі, Санта-Кларіті, Лонг-Біч, Ла-Каньяда-Флінтріджі і Бербанку. У фільмі Ненсі їздить в блакитному кабріолеті Nash Metropolitan.


Тривалість: 01:35:19
Якість: 720p
Відео:
кодек:
розмір кадру: 1280 х 532
бітрейт: 4234 кб/с

Аудіо # 1:
мова: українська
переклад: двоголосий закадровий
кодек: 5.1
бітрейт: 384 кб/с

Аудіо # 2:
мова: англійська
переклад: оригінал
кодек: 5.1
бітрейт: 384 кб/с

Субтитри:
мова: англійська
тип: програмні (м'які)
формат: *.srt
Info
General
Unique ID : 286629865629635998440496720890150470822 (0xD7A2E774393A51940943DA36CC8F44A6)
Complete name : F:\Nancy Drew Movie Collection\Nancy Drew (2007) 720p UkrEng Sub Eng [Hurtom].
Format :
Format version : Version 4
File size : 3.33 GiB
Duration : 1 h 35 min
Overall bit rate : 5 004 kb/s
Movie name : Ненсі Дрю / / Nancy Drew (2007) 720p Ukr/Eng | Sub Eng [Hurtom]
Encoded date : UTC 2019-11-09 21:16:24
Writing application : v25.0.0 ('Prog Noir') 64-bit
Writing library : libebml v1.3.6 + v1.4.9
Cover : Yes
Attachments : cover.jpg

Video
ID : 1
Format : AVC
Format/Info : Advanced Video Codec
Format profile : [email protected]
Format settings : 2 Ref Frames
Format settings, CABAC : No
Format settings, Reference fra : 2 frames
Format settings, GOP : N=1
Codec ID : V_MPEG4/ISO/AVC
Duration : 1 h 35 min
Bit rate : 4 234 kb/s
Width : 1 280 pixels
Height : 532 pixels
Display aspect ratio : 2.40:1
Frame rate mode : Constant
Frame rate : 25.000 FPS
Color space : YUV
Chroma subsampling : 4:2:0
Bit depth : 8 bits
Scan type : Progressive
Bits/(Pixel*Frame) : 0.249
Stream size : 2.82 GiB (85%)
Title : Nancy Drew (2007) 720p Ukr/Eng | Sub Eng [Hurtom]
Language : Ukrainian
Default : Yes
Forced : Yes
Color range : Limited
Color primaries : BT.709
Transfer characteristics : BT.709
Matrix coefficients : BT.709

Audio #1
ID : 2
Format : AC-3
Format/Info : Audio Coding 3
Commercial name : Dolby Digital
Codec ID : A_AC3
Duration : 1 h 35 min
Bit rate mode : Constant
Bit rate : 384 kb/s
Channel(s) : 6 channels
Channel layout : L R C LFE Ls Rs
Sampling rate : 48.0 kHz
Frame rate : 31.250 FPS (1536 SPF)
Bit depth : 16 bits
Compression mode : Lossy
Delay relative to video : 1 s 0 ms
Stream size : 262 MiB (8%)
Title : DVO [НОВИЙ] 5.1
Language : Ukrainian
Service kind : Complete Main
Default : Yes
Forced : Yes

Audio #2
ID : 3
Format : AC-3
Format/Info : Audio Coding 3
Commercial name : Dolby Digital
Codec ID : A_AC3
Duration : 1 h 35 min
Bit rate mode : Constant
Bit rate : 384 kb/s
Channel(s) : 6 channels
Channel layout : L R C LFE Ls Rs
Sampling rate : 48.0 kHz
Frame rate : 31.250 FPS (1536 SPF)
Bit depth : 16 bits
Compression mode : Lossy
Delay relative to video : 1 s 0 ms
Stream size : 262 MiB (8%)
Title : Original 5.1
Language : English
Service kind : Complete Main
Default : No
Forced : No

Text
ID : 4
Format : UTF-8
Codec ID : S_TEXT/UTF8
Codec ID/Info : UTF-8 Plain Text
Duration : 1 h 28 min
Bit rate : 60 b/s
Count of elements : 1121
Stream size : 39.5 KiB (0%)
Language : English
Default : Yes
Forced : No
Скріншоти
Джерело: &
Подяка п. olgaya та п. MAKAPOHHIK за надані сирі доріжки, п. robotron005 за синхронізацію, та п. grytzz за українізований постер.
Особиста оцінка: 8 - мені сподобалося


 Трекер:    Зареєстрований   

Завантажити / скачати фільм українською



відео для новачків



 Зареєстрований:   2019-11-09 23:46
 Розмір:   3.33 GB 
 Оцінка фільму:   9.5/10 (Голосів: 8)
   
Інші релізи
   Ненсі Дрю / Nancy Drew (2007) 1080p Ukr/Eng | Sub Eng -Star-Lord-  3 / 0   6.79 GB   2019-11-10 01:48 
   Ненсі Дрю / Nancy Drew (2007) Ukr/Eng robotron005  2 / 0   1.45 GB   2011-06-02 11:51 
Ваш часовий пояс: GMT + 2 Години

Нова тема   Відповісти