Горець / Highlander (1986) Remux 1080p [30th Anniversary Edition, Remastered] 2xUkr/Eng | Sub Eng

Нові коментарі

Нова тема   Відповісти
Автор Повідомлення
MakRA 
VIP


З нами з: 10.11.18
Востаннє: 15.11.19
Повідомлень: 508

2019-11-09 21:54  
Горець / Highlander (1986) Remux 1080p [30th Anniversary Edition, Remastered] 2xUkr/Eng | Sub Eng


Український постер:

Жанр: екшн, фентезі, пригодницький
Країна: США , Великобританія



Кінокомпанія: Thorn EMI Screen Entertainment, Highlander Productions Limited, Davis-Panzer Productions
Режисер: Рассел Малкехі [Russell Mulcahy]
Актори: Крістофер Ламберт [Christopher Lambert], Роксанна Харт [Roxanne Hart], Кленсі Браун [Clancy Brown], Шон Коннері [Sean Connery], Беті Едні [Beatie Edney], Алан Норт [Alan North], Джон Політо [Jon Polito], Шила Гиш [Sheila Gish], Х'ю Куарши [Hugh Quarshie], Крістофер Малкольм [Christopher Malcolm]

Сюжет:
Легендарне, захоплююче фентезі про безсмертних, що тисячі років живуть між людей та ведуть нескінченну боротьбу один з одним.
Головний герой - шотландець Коннор Маклауд, який в 1536 році загинув у битві між гірськими кланами, після чого містичним чином повернувся до життя. Ставши вигнанцем у рідному селищі, Коннор пустився поневірятись країною доки не зустрів мандруючого іспанського дворянина, який пояснив Маклауду, що той належить до виду безсмертних воїнів.Сотні років по тому, у наші часи, Коннор зустрічає свого давнього ворога, безсмертного і жорстокого вбивцю Кургана, який мріє відсікти голову Маклауду. У цій битві залишиться тільки один…


Тривалість: 01:56:38
Якість: Remux 1080p [30th Anniversary Edition, Remastered] [GER Transfer]
Відео:
кодек:
розмір кадру: 1920 х 1080
бітрейт: 20 Мб/с

Аудіо # 1:
мова: українська
переклад: багатоголосий закадровий
кодек: 2.0
бітрейт: 192 кб/с

Аудіо # 2:
мова: українська
переклад: багатоголосий закадровий
кодек: 2.0
бітрейт: 192 кб/с

Аудіо # 3:
мова: англійська
переклад: оригінал
кодек: -HD MA 5.1
бітрейт: 3943 кб/с

Аудіо # 4:
мова: англійська
переклад: оригінал
кодек: 2.0
бітрейт: 192 кб/с

Аудіо # 5:
мова: англійська
переклад: коментарі режисера Рассела Малкехі
кодек: 2.0
бітрейт: 192 кб/с

Субтитри # 1: (Full)
мова: англійська
тип: програмні (м'які)
формат: *.srt

Субтитри # 3: (Full)
мова: англійська
тип: пререндерні
формат: *.pgs

Збережено оригінальні розділи, як на Blu-ray.
Info
General
Unique ID : 143140859048046851081605270574999551432 (0x6BAFED3A48B9FCF6CB83A487C25C3DC8)
Complete name : I:\+ Фільми в HD\екшн, фентезі, пригодницький\Highlander. Collection Remux 1080p\Highlander (1986) Remux 1080p [30th Anniversary Edition, Remastered] 2xUkrEng Sub Eng [Hurtom].
Format :
Format version : Version 4
File size : 20.6 GiB
Duration : 1 h 56 min
Overall bit rate mode : Variable
Overall bit rate : 25.2 Mb/s
Movie name : Горець / Highlander (1986) Remux 1080p [30th Anniversary Edition, Remastered] 2xUkr/Eng | Sub Eng [Hurtom]
Encoded date : UTC 2019-11-09 18:06:32
Writing application : v25.0.0 ('Prog Noir') 64-bit
Writing library : libebml v1.3.6 + v1.4.9
Cover : Yes
Attachments : cover.jpg

Video
ID : 1
Format : AVC
Format/Info : Advanced Video Codec
Format profile : [email protected]
Format settings : CABAC / 3 Ref Frames
Format settings, CABAC : Yes
Format settings, Reference fra : 3 frames
Codec ID : V_MPEG4/ISO/AVC
Duration : 1 h 56 min
Bit rate mode : Variable
Bit rate : 20.0 Mb/s
Maximum bit rate : 32.0 Mb/s
Width : 1 920 pixels
Height : 1 080 pixels
Display aspect ratio : 16:9
Frame rate mode : Constant
Frame rate : 24.000 FPS
Standard : NTSC
Color space : YUV
Chroma subsampling : 4:2:0
Bit depth : 8 bits
Scan type : Progressive
Bits/(Pixel*Frame) : 0.402
Stream size : 16.3 GiB (79%)
Title : Highlander (1986) Remux 1080p [30th Anniversary Edition, Remastered] 2xUkr/Eng | Sub Eng [Hurtom]
Language : Ukrainian
Default : Yes
Forced : Yes
Color range : Limited
Color primaries : BT.709
Transfer characteristics : BT.709
Matrix coefficients : BT.709

Audio #1
ID : 2
Format : AC-3
Format/Info : Audio Coding 3
Commercial name : Dolby Digital
Codec ID : A_AC3
Duration : 1 h 56 min
Bit rate mode : Constant
Bit rate : 192 kb/s
Channel(s) : 2 channels
Channel layout : L R
Sampling rate : 48.0 kHz
Frame rate : 31.250 FPS (1536 SPF)
Bit depth : 16 bits
Compression mode : Lossy
Stream size : 160 MiB (1%)
Title : MVO [УКРАЇНА] [NLO.TV] 2.0
Language : Ukrainian
Service kind : Complete Main
Default : Yes
Forced : Yes

Audio #2
ID : 3
Format : AC-3
Format/Info : Audio Coding 3
Commercial name : Dolby Digital
Codec ID : A_AC3
Duration : 1 h 56 min
Bit rate mode : Constant
Bit rate : 192 kb/s
Channel(s) : 2 channels
Channel layout : L R
Sampling rate : 48.0 kHz
Frame rate : 31.250 FPS (1536 SPF)
Bit depth : 16 bits
Compression mode : Lossy
Stream size : 160 MiB (1%)
Title : MVO [1+1] [ICTV] 2.0
Language : Ukrainian
Service kind : Complete Main
Default : No
Forced : No

Audio #3
ID : 4
Format : XLL
Format/Info : Digital Theater Systems
Commercial name : -HD Master Audio
Codec ID : A_DTS
Duration : 1 h 56 min
Bit rate mode : Variable
Bit rate : 3 943 kb/s
Channel(s) : 6 channels
Channel layout : C L R Ls Rs LFE
Sampling rate : 48.0 kHz
Frame rate : 93.750 FPS (512 SPF)
Bit depth : 24 bits
Compression mode : Lossless
Stream size : 3.21 GiB (16%)
Title : Original -HD MA 5.1
Language : English
Default : No
Forced : No

Audio #4
ID : 5
Format : AC-3
Format/Info : Audio Coding 3
Commercial name : Dolby Digital
Codec ID : A_AC3
Duration : 1 h 56 min
Bit rate mode : Constant
Bit rate : 448 kb/s
Channel(s) : 2 channels
Channel layout : L R
Sampling rate : 48.0 kHz
Frame rate : 31.250 FPS (1536 SPF)
Bit depth : 16 bits
Compression mode : Lossy
Stream size : 374 MiB (2%)
Title : Original 2.0
Language : English
Service kind : Complete Main
Default : No
Forced : No

Audio #5
ID : 6
Format : AC-3
Format/Info : Audio Coding 3
Commercial name : Dolby Digital
Codec ID : A_AC3
Duration : 1 h 56 min
Bit rate mode : Constant
Bit rate : 448 kb/s
Channel(s) : 2 channels
Channel layout : L R
Sampling rate : 48.0 kHz
Frame rate : 31.250 FPS (1536 SPF)
Bit depth : 16 bits
Compression mode : Lossy
Stream size : 374 MiB (2%)
Title : Original 2.0 | Comentary with director Russell Mulcahy
Language : English
Service kind : Complete Main
Default : No
Forced : No

Text #1
ID : 7
Format : UTF-8
Codec ID : S_TEXT/UTF8
Codec ID/Info : UTF-8 Plain Text
Duration : 1 h 50 min
Bit rate : 28 b/s
Count of elements : 733
Stream size : 22.7 KiB (0%)
Title : Eng (Full) SRT
Language : English
Default : No
Forced : No

Text #2
ID : 8
Format : PGS
Muxing mode : zlib
Codec ID : S_HDMV/PGS
Codec ID/Info : Picture based subtitle format used on BDs/HD-DVDs
Duration : 1 h 54 min
Bit rate : 22.5 kb/s
Count of elements : 1472
Stream size : 18.3 MiB (0%)
Title : Eng (Full) PGS
Language : English
Default : No
Forced : No

Menu
00:00:00.000 : en:Main Titles/Operatic Overture
00:05:00.000 : en:The Last Time
00:10:00.000 : en:Future Exile
00:15:00.000 : en:Fish Out of Water
00:20:00.000 : en:Sheild Tampering
00:25:00.000 : en:On the Run
00:30:00.000 : en:Kiss of Death
00:35:00.000 : en:All the World's a Stage
00:40:00.000 : en:Clothes Make the Man
00:45:00.000 : en:Once Before I Die
00:50:00.000 : en:Speed Kills
00:55:00.000 : en:Launching the Sheild
01:00:00.000 : en:My Kind of Town
01:05:00.000 : en:On Holy Ground
01:10:00.000 : en:Immortal Embattled
01:15:00.000 : en:Greetings, Highlander
01:20:00.000 : en:Business As Usual
01:25:00.000 : en:Security Breach
01:30:00.000 : en:Full Measure of Life
01:35:00.000 : en:Above the Sheild
01:40:00.000 : en:Executive Decision Making
01:45:00.000 : en:There Can Be Only One
01:50:00.000 : en:Raising the Roof
01:55:00.000 : en:End Credits
Скріншоти
Джерело: &
За запис звуку з ТБ дякую п. slavik_v_z, Bohdan237, синхронізація п. Arsenfpu
Особиста оцінка: 10 - без зайвих вагань рекомендую всім!


Золотий реліз (завантажене не впливає на рейтинг)
 Трекер:    Зареєстрований   

Завантажити / скачати фільм українською



відео для новачків



 Зареєстрований:   2019-11-09 21:54
 Розмір:   20.56 GB 
 Оцінка фільму:   9.9/10 (Голосів: 11)
   
Інші релізи
   Горець / Highlander (1986) 1080p 2xUkr/Eng | Sub Eng drop_plz  6 / 0   8.26 GB   2018-08-13 08:05 
   Горець / Highlander (1986) AVC 2xUkr/Eng Arsenfpu  7 / 0   2.56 GB   2017-10-08 23:06 
MakRA 
VIP


З нами з: 10.11.18
Востаннє: 15.11.19
Повідомлень: 508

2019-11-09 22:06  
Робив ще і 1080p REMASTERED, але побачив, що там лише оновити, то вже до пана drop_plz Happy
Ваш часовий пояс: GMT + 2 Години

Нова тема   Відповісти