Смертельне падіння / Dead Drop (2013) AVC Ukr/Eng

Нові коментарі

Нова тема   Відповісти
Автор Повідомлення
Arsenfpu 
Відео Гуртом - фільмокрай
Відео Гуртом - фільмокрай


З нами з: 30.04.09
Востаннє: 18.11.19
Повідомлень: 6235

2019-11-09 20:10  
Смертельне падіння / Dead Drop (2013) AVC Ukr/Eng

Смертельне падіння / Dead Drop (2013) AVC Ukr/Eng


Жанр: бойовик, кримінальний, драма
Країна: Мексика, США



Кінокомпанія: Badhouse Studios Mexico, Project One Films
Режисер: Елліс Фрейзіер
Актори: Люк Госс, Нестор Карбонелл, Коул Хаузер, Давид Дель Ріо, Кароліна Кастро, Даніель Фаральдо, Джилл Ремес, Джеффрі Росс, Давид Фернандес-мол., Оскар Лопес

Сюжет:
Майкл Шонессі - досвідчений агент ЦРУ. Він працює над складною справою і вже 2 роки перебуває під прикриттям в мексиканському угрупованні, що займається продажем наркотиків, лідером якої є Сантьяго. Останній стає для Майкла другом, і, здається, ніхто не підозрює про його подвійне життя агента. Але одного разу під час польоту на літаку Шонессі скидають за борт. Лише завдяки неймовірній випадковості він виживає. Оговтавшись від важких поранень, Майкл має намір повернутися в Мексику, знайти Сантьяго і помститися йому. Ускладнює ситуацію те, що він не пам'ятає всього, що сталося перед тим, як його виштовхнули з літака. Через несхвалення своїх колег по ЦРУ Майкл приїжджає до Мексики таємно. Він зустрічається з тими, кому ще може довіряти, в тому числі і коханою Росітою. Вони намагаються відмовити Шонессі від помсти. Але агент непохитний і починає пошуки Сантьяго. Тим часом, наркобарон і сам вважає Майкла головним ворогом..


Тривалість: 01:28:58
Якість:
Відео:
кодек:
розмір кадру: 1 024 х 576
бітрейт: 2 099 кб/с

Аудіо # 1:
мова: українська
переклад: багатоголосий закадровий
кодек: 2.0
бітрейт: 192 кб/с

Аудіо # 2:
мова: англійська
переклад: оригінал
кодек: 2.0
бітрейт: 192 кб/с
Про файл
General
Unique ID : 76780618911872180861407229127862183729 (0x39C368C89CAB03043178C2F6F83EE731)
Complete name : C:\Dead Drop (2013) [Ukr,Eng] AVC [Hurtom].
Format :
Format version : Version 4 / Version 2
File size : 1.54 GiB
Duration : 1 h 28 min
Overall bit rate : 2 484 kb/s
Movie name : Смертельне падіння / Dead Drop (2013)
Encoded date : UTC 2019-11-09 16:51:35
Writing application : v21.0.0 ('Tardigrades Will Inherit The Earth') 32-bit
Writing library : libebml v1.3.5 + v1.4.8
Cover : Yes
Attachments : cover.jpg

Video
ID : 1
Format : AVC
Format/Info : Advanced Video Codec
Format profile : [email protected]
Format settings, CABAC : Yes
Format settings, ReFrames : 4 frames
Codec ID : V_MPEG4/ISO/AVC
Duration : 1 h 28 min
Bit rate : 2 099 kb/s
Width : 1 024 pixels
Height : 576 pixels
Display aspect ratio : 16:9
Frame rate mode : Constant
Frame rate : 23.923 FPS
Color space : YUV
Chroma subsampling : 4:2:0
Bit depth : 8 bits
Scan type : Progressive
Bits/(Pixel*Frame) : 0.149
Stream size : 1.30 GiB (84%)
Writing library : core 157 r2935 545de2f
Encoding settings : cabac=1 / ref=3 / deblock=1:-1:-1 / analyse=0x3:0x113 / me=hex / subme=7 / psy=1 / psy_rd=1.00:0.15 / mixed_ref=1 / me_range=16 / chroma_me=1 / trellis=1 / 8x8dct=1 / cqm=0 / deadzone=21,11 / fast_pskip=1 / chroma_qp_offset=-3 / threads=12 / lookahead_threads=2 / sliced_threads=0 / nr=0 / decimate=1 / interlaced=0 / bluray_compat=0 / constrained_intra=0 / bframes=3 / b_pyramid=2 / b_adapt=1 / b_bias=0 / direct=1 / weightb=1 / open_gop=0 / weightp=2 / keyint=239 / keyint_min=23 / scenecut=40 / intra_refresh=0 / rc_lookahead=40 / rc=2pass / mbtree=1 / bitrate=2099 / ratetol=1.0 / qcomp=0.60 / qpmin=0 / qpmax=69 / qpstep=4 / cplxblur=20.0 / qblur=0.5 / ip_ratio=1.40 / aq=1:1.00
Default : Yes
Forced : No

Audio #1
ID : 2
Format : AC-3
Format/Info : Audio Coding 3
Mode extension : CM (complete main)
Format settings, Endianness : Big
Codec ID : A_AC3
Duration : 1 h 28 min
Bit rate mode : Constant
Bit rate : 192 kb/s
Channel(s) : 2 channels
Channel positions : Front: L R
Sampling rate : 48.0 kHz
Frame rate : 31.250 FPS (1536 spf)
Compression mode : Lossy
Stream size : 122 MiB (8%)
Title : 2+2
Language : Ukrainian
Default : Yes
Forced : Yes

Audio #2
ID : 3
Format : AC-3
Format/Info : Audio Coding 3
Mode extension : CM (complete main)
Format settings, Endianness : Big
Codec ID : A_AC3
Duration : 1 h 28 min
Bit rate mode : Constant
Bit rate : 192 kb/s
Channel(s) : 2 channels
Channel positions : Front: L R
Sampling rate : 48.0 kHz
Frame rate : 31.250 FPS (1536 spf)
Compression mode : Lossy
Stream size : 122 MiB (8%)
Language : English
Default : No
Forced : No
Скріншоти














Джерело:
За запис з ТБ дякую пану Bohdan237
Особиста оцінка: не дивився


 Трекер:    Зареєстрований   

Завантажити / скачати фільм українською



відео для новачків



 Зареєстрований:   2019-11-09 20:10
 Розмір:   1.54 GB 
 Оцінка фільму:   6.4/10 (Голосів: 5)
   
Ваш часовий пояс: GMT + 2 Години

Нова тема   Відповісти