Життя з самим собою (Сезон 1, Серія 1-4 з 8) / Living With Yourself (Season 1, Episodes 1-4 of 8) (2019) 1080р Ukr/Eng | Sub Ukr/Eng

Нові коментарі

Нова тема   Відповісти
Автор Повідомлення
AdrianZP 
VIP


З нами з: 28.08.14
Востаннє: 18.11.19
Повідомлень: 279

2019-11-09 16:25  
Життя з самим собою (Сезон 1, Серія 1-4 з 8) / Living With Yourself (Season 1, Episodes 1-4 of 8) (2019) 1080р Ukr/Eng | Sub Ukr/Eng

Життя з самим собою (Сезон 1, Серія 1-4 з 8) / Living With Yourself (Season 1, Episodes 1-4 of 8) (2019) 1080р Ukr/Eng | Sub Ukr/Eng


Проєкт підготовлено за підтримки fishMD


Жанр: Комедія, Драма
Країна: США



Кінокомпанія: Netflix
Режисер: Тімоті Ґрінберґ
Актори: Пол Радд, Ешлінґ Беатрис

Сюжет:
Наш герой на ім'я Майлз розчарований своїм життям та хоче його змінити. В кращий бік, звичайно. Так вже сталося, що колега по роботі порадив один цікавий спа-салон, де можуть допомогти з покращенням свого Я. Процедура звісно не дешева, адже відбувається втручання до ДНК та її перебудова. Після чого лишаться лише найкращі з найкращих рис себе. Проте не все так просто...


Тривалість: 1 серія: ~30 хв. (цілком серій: 1-4 з 8)
Перелік серій
1. Найкраща версія тебе
2. Народжений в Стрип-Моллі
3. Зелений чай
4. Споріднена душа (Половинка)
???
Якість:
Відео:
кодек:
розмір кадру: 1 920 х 1 080
бітрейт: ~3 000-8 000 кб/с

Аудіо # 1:
мова: українська
переклад: багатоголосий закадровий | Озвучка AdrianZP
кодек: 5.1
бітрейт: 448 кб/с

Аудіо # 2:
мова: англійська
переклад: оригінал
кодек: 5.1
бітрейт: 448 кб/с

Субтитри:
мова: українська | Озвучка AdrianZP
тип: програмні (м'які)
формат: *.srt

Субтитри:
мова: англійська
тип: програмні (м'які)
формат: *.srt
Info
Format :
Format version : Version 4 / Version 2
File size : 950 MiB
Duration : 26 min 42 s
Overall bit rate mode : Variable
Overall bit rate : 4 976 kb/s
Encoded date : UTC 2019-11-10 12:49:12
Writing application : v9.4.0 ('Knurl') 64bit
Writing library : libebml v1.3.4 + v1.4.5
Attachments : poster-min.jpg

Video
ID : 1
Format : AVC
Format/Info : Advanced Video Codec
Format profile : [email protected]
Format settings, CABAC : Yes
Format settings, ReFrames : 3 frames
Codec ID : V_MPEG4/ISO/AVC
Duration : 26 min 42 s
Bit rate mode : Variable
Bit rate : 4 220 kb/s
Maximum bit rate : 6 330 kb/s
Width : 1 920 pixels
Height : 1 080 pixels
Display aspect ratio : 16:9
Frame rate mode : Constant
Frame rate : 23.976 (24000/1001) FPS
Color space : YUV
Chroma subsampling : 4:2:0
Bit depth : 8 bits
Scan type : Progressive
Bits/(Pixel*Frame) : 0.085
Stream size : 778 MiB (82%)
Writing library : core 148 r2715 7e75228
Encoding settings : cabac=1 / ref=3 / deblock=1:0:0 / analyse=0x1:0x111 / me=umh / subme=10 / psy=1 / psy_rd=1.00:0.00 / mixed_ref=1 / me_range=24 / chroma_me=1 / trellis=2 / 8x8dct=0 / cqm=0 / deadzone=21,11 / fast_pskip=1 / chroma_qp_offset=-2 / threads=8 / lookahead_threads=1 / sliced_threads=0 / nr=0 / decimate=1 / interlaced=0 / bluray_compat=0 / stitchable=1 / constrained_intra=0 / bframes=2 / b_pyramid=0 / b_adapt=2 / b_bias=0 / direct=3 / weightb=1 / open_gop=0 / weightp=2 / keyint=250 / keyint_min=23 / scenecut=0 / intra_refresh=0 / rc_lookahead=48 / rc=2pass / mbtree=1 / bitrate=4220 / ratetol=1.0 / qcomp=0.50 / qpmin=6 / qpmax=51 / qpstep=4 / cplxblur=20.0 / qblur=0.5 / vbv_maxrate=6330 / vbv_bufsize=8440 / nal_hrd=vbr / filler=0 / ip_ratio=1.40 / aq=1:1.00
Language : English
Default : Yes
Forced : No

Audio #1
ID : 2
Format : AC-3
Format/Info : Audio Coding 3
Mode extension : CM (complete main)
Format settings, Endianness : Big
Codec ID : A_AC3
Duration : 26 min 42 s
Bit rate mode : Constant
Bit rate : 448 kb/s
Channel(s) : 6 channels
Channel positions : Front: L C R, Side: L R, LFE
Sampling rate : 48.0 kHz
Frame rate : 31.250 FPS (1536 spf)
Compression mode : Lossy
Stream size : 85.6 MiB (9%)
Title : Озвучка AdrianZP
Language : Ukrainian
Default : Yes
Forced : No

Audio #2
ID : 3
Format : AC-3
Format/Info : Audio Coding 3
Mode extension : CM (complete main)
Format settings, Endianness : Big
Codec ID : A_AC3
Duration : 26 min 42 s
Bit rate mode : Constant
Bit rate : 448 kb/s
Channel(s) : 6 channels
Channel positions : Front: L C R, Side: L R, LFE
Sampling rate : 48.0 kHz
Frame rate : 31.250 FPS (1536 spf)
Compression mode : Lossy
Stream size : 85.6 MiB (9%)
Language : English
Default : No
Forced : No

Text #1
ID : 4
Format : UTF-8
Codec ID : S_TEXT/UTF8
Codec ID/Info : UTF-8 Plain Text
Duration : 24 min 53 s
Bit rate : 59 b/s
Count of elements : 260
Stream size : 10.8 KiB (0%)
Title : Субтитри від "Озвучка AdrianZP"
Language : Ukrainian
Default : No
Forced : No

Text #2
ID : 5
Format : UTF-8
Codec ID : S_TEXT/UTF8
Codec ID/Info : UTF-8 Plain Text
Duration : 25 min 43 s
Bit rate : 51 b/s
Count of elements : 417
Stream size : 9.78 KiB (0%)
Language : English
Default : No
Forced : No
Скріншоти




Озвучення виконано:
Переклад: Dakshina_Kali
Редагування субтитрів: AdrianZP
Ролі озвучили: Сафін, Lira, AdrianZP, Lomaev та Dakshina_Kali
Робота зі звуком: AdrianZP
Постер: AdrianZP

Джерело:
Особиста оцінка: 10 - Розслабляє мізки.


Авторський реліз (завантажувати можна без реєстрації)
 Трекер:    Зареєстрований   

Завантажити / скачати серіал українською



відео для новачків



 Зареєстрований:   2019-11-17 15:36
 Розмір:   4.19 GB 
 Оцінка серіалу:   9.9/10 (Голосів: 14)
   
AdrianZP 
VIP


З нами з: 28.08.14
Востаннє: 18.11.19
Повідомлень: 279

2019-11-10 15:09  
Озвучено перші 2 серії!


Не забувайте, що найкраща подяка — лишатися на роздачі. Дякуємо!


Якщо хтось створюватиме додаткові релізи з іншою якістю, просимо вказувати всю інформацію про команду озвучення.

Slaveniy Triska 
Частий відвідувач


З нами з: 26.10.17
Востаннє: 18.11.19
Повідомлень: 36

2019-11-11 14:37  
Серіал просто топ! Озвучка, як завжди, найкраща! Подивився дві серії і тепер хочу знати, що буде далі) Пол Радд мене ПОЛРАДДував офігенською акторською грою)
Cumva 
Свій


З нами з: 03.07.12
Востаннє: 18.11.19
Повідомлень: 70

2019-11-14 04:46  
Початок виглядає суперово, якість озвучки на висоті!
Коли наступні епізоди?

don pedro 
Попереджень: 1
Попереджень: 1 


З нами з: 29.06.11
Востаннє: 18.11.19
Повідомлень: 14843

2019-11-14 19:17  
AdrianZP написано:
Життя з самим собою

Наністи?!

AdrianZP 
VIP


З нами з: 28.08.14
Востаннє: 18.11.19
Повідомлень: 279

2019-11-17 15:57  
ДОДАНО 3-4 СЕРІЮ!


Додано через 22 хвилини 30 секунд:

Cumva написано:
Коли наступні епізоди?

Вже є наступні)

Ваш часовий пояс: GMT + 2 Години

Нова тема   Відповісти