Реґентруда / Das Märchen von der Regentrude (2018) 720p Ukr/Ger

Нові коментарі

Нова тема   Відповісти
Автор Повідомлення
Anonymous 







2019-11-09 15:16  
Реґентруда / Das Märchen von der Regentrude (2018) 720p Ukr/Ger

Реґентруда / Das Märchen von der Regentrude (2018) 720p Ukr/Ger


Жанр: сімейний, казка
Країна: Німеччина



Кінокомпанія: Zieglerfilm Köln
Режисер: Клаус Кньосель
Актори: Яніна Фаутц, Рафаель Ґарайзен, Аксель Прайль, Ґабріела Марія Шмайде, Іна Вайсе, Йорн Кнебель

Сюжет:
Марен палко закохана в бідняка Андрея. Але її батько старий Івен забороняє виходити заміж через його скрутне становище. Марен придумує все, щоб вмовити батька на шлюб із Андресом. Вона уклала угоду з Івеном: якщо завтра піде дощ, то вона одружиться із коханим. Старий не вірить в чудо, але через мрію про дощ погоджується.
Марен збирає всю сміливість і вирушає на пошуки Регентруди.
Що буде з королівством? Чи врятує людей і своє кохання Марен?


Тривалість: 00:57:48
Якість:
Відео:
кодек:
розмір кадру: 1280 х 716
бітрейт: 3703 кб/с

Аудіо # 1:
мова: українська
переклад: професійний дубльований
кодек: 2.0
бітрейт: 192 кб/с

Аудіо # 2:
мова: німецька
переклад: оригінал
кодек: 2.0
бітрейт: 384 кб/с

Джерело озвучення:
Info
General
Unique ID : 338652035711100882361376014231184648813 (0xFEC6027722CE3B208916D39D8384AA6D)
Complete name : Das Märchen von der Regentrude (2018) 720p [Ukr_Ger] [Hurtom].
Format :
Format version : Version 4
File size : 1.73 GiB
Duration : 57 min 48 s
Overall bit rate : 4 281 kb/s
Movie name : Реґентруда (2018)
Encoded date : UTC 2019-11-09 12:50:46 / UTC 2018-12-25T15:47:59Z
Writing application : v30.1.0 ('Forever And More') 64-bit
Writing library : libebml v1.3.6 + v1.4.9 / Lavf57.7.2
Cover : Yes
Attachments : cover.jpg

Video
ID : 1
Format : AVC
Format/Info : Advanced Video Codec
Format profile : [email protected]
Format settings : CABAC / 5 Ref Frames
Format settings, CABAC : Yes
Format settings, ReFrames : 5 frames
Codec ID : V_MPEG4/ISO/AVC
Duration : 57 min 48 s
Bit rate : 3 703 kb/s
Width : 1 280 pixels
Height : 716 pixels
Display aspect ratio : 16:9
Frame rate mode : Constant
Frame rate : 25.000 FPS
Color space : YUV
Chroma subsampling : 4:2:0
Bit depth : 8 bits
Scan type : Progressive
Bits/(Pixel*Frame) : 0.162
Stream size : 1.49 GiB (86%)
Writing library : core 155 r2901 7d0ff22
Encoding settings : cabac=1 / ref=5 / deblock=1:-3:-3 / analyse=0x3:0x113 / me=umh / subme=7 / psy=1 / psy_rd=1.00:0.00 / mixed_ref=1 / me_range=16 / chroma_me=1 / trellis=1 / 8x8dct=1 / cqm=0 / deadzone=21,11 / fast_pskip=1 / chroma_qp_offset=-2 / threads=12 / lookahead_threads=2 / sliced_threads=0 / nr=0 / decimate=1 / interlaced=0 / bluray_compat=0 / constrained_intra=0 / bframes=3 / b_pyramid=2 / b_adapt=2 / b_bias=0 / direct=3 / weightb=1 / open_gop=0 / weightp=2 / keyint=250 / keyint_min=25 / scenecut=40 / intra_refresh=0 / rc_lookahead=50 / rc=crf / mbtree=1 / crf=20.0 / qcomp=0.60 / qpmin=0 / qpmax=69 / qpstep=4 / vbv_maxrate=62500 / vbv_bufsize=78125 / crf_max=0.0 / nal_hrd=none / filler=0 / ip_ratio=1.40 / aq=1:1.00
Language : German
Default : Yes
Forced : No
Color range : Limited
Color primaries : BT.709
Transfer characteristics : BT.709
Matrix coefficients : BT.709

Audio #1
ID : 2
Format : AC-3
Format/Info : Audio Coding 3
Commercial name : Dolby Digital
Codec ID : A_AC3
Duration : 57 min 48 s
Bit rate mode : Constant
Bit rate : 192 kb/s
Channel(s) : 2 channels
Channel layout : L R
Sampling rate : 48.0 kHz
Frame rate : 31.250 FPS (1536 SPF)
Bit depth : 16 bits
Compression mode : Lossy
Stream size : 79.4 MiB (4%)
Language : Ukrainian
Service kind : Complete Main
Default : Yes
Forced : Yes

Audio #2
ID : 3
Format : AC-3
Format/Info : Audio Coding 3
Commercial name : Dolby Digital
Codec ID : A_AC3
Duration : 57 min 48 s
Bit rate mode : Constant
Bit rate : 384 kb/s
Channel(s) : 2 channels
Channel layout : L R
Sampling rate : 48.0 kHz
Frame rate : 31.250 FPS (1536 SPF)
Bit depth : 16 bits
Compression mode : Lossy
Delay relative to video : 32 ms
Stream size : 159 MiB (9%)
Title : Stereo
Language : German
Service kind : Complete Main
Default : No
Forced : No
Скріншоти





Джерело:


 Трекер:    Зареєстрований   

Завантажити / скачати фільм українською



відео для новачків



 Зареєстрований:   2019-11-17 11:19
 Розмір:   1.73 GB 
 Оцінка фільму:   9.8/10 (Голосів: 6)
   
Ваш часовий пояс: GMT + 2 Години

Нова тема   Відповісти