Небеса у вогні / Heaven's Burning (1997) AVC Ukr/Eng | sub Eng

Нові коментарі

Нова тема   Відповісти
Автор Повідомлення
Arsenfpu 
Відео Гуртом - фільмокрай
Відео Гуртом - фільмокрай


З нами з: 30.04.09
Востаннє: 20.11.19
Повідомлень: 6239

2019-11-09 13:05  
Небеса у вогні / Heaven's Burning (1997) AVC Ukr/Eng | sub Eng

Небеса у вогні / Heaven's Burning (1997) AVC Ukr/Eng | sub Eng


Жанр: бойовик, кримінальний, драма, мелодрама
Країна: Австралія



Кінокомпанія: Duo Art Productions
Режисер: Крег Лейф
Актори: Рассел Кроу, Юкі Кудо, Кен'ї Ісамуро, Рей Баретт, Роберт Мемоун

Сюжет:
Японську наречену на ім'я Мідорі викрадають під час медового місяця як заручницю при пограбуванні банку в Сіднеї. Як свідка (вона побачила грабіжників без масок), її чекає вірна смерть, але її рятує Колін, водій машини "відходу". Захищаючи Мідорі, Колін убиває молодшого брата ватажка банди, накликуючи на себе гнів і помсту Махуда і його крутого батька Бурджана. Захищаючи тендітну жінку, ідучи від погоні гангстерів і чоловіка, Колін і Мідорі несуться через усю країну і по дорозі жагуче закохуються один в одного…


Тривалість: 01:39:10
Якість:
Відео:
кодек:
розмір кадру: 1 024 х 432
бітрейт: 2 599 кб/с

Аудіо # 1:
мова: українська
переклад: двоголосий закадровий
кодек: 2.0
бітрейт: 192 кб/с

Аудіо # 2:
мова: англійська
переклад: оригінал
кодек: 2.0
бітрейт: 192 кб/с

Субтитри:
мова: англійська
тип: програмні (м'які)
формат: *.srt
Про файл
General
Unique ID : 242886026489024305839363236355118062126 (0xB6BA25AB8BF207F488FF0F36F1ADDA2E)
Complete name : C:\Heaven's Burning (1997) [Ukr,Eng] AVC [Hurtom].
Format :
Format version : Version 4 / Version 2
File size : 2.07 GiB
Duration : 1 h 39 min
Overall bit rate : 2 985 kb/s
Movie name : Небеса у вогні / Heaven's Burning (1997)
Encoded date : UTC 2019-11-09 10:07:05
Writing application : v21.0.0 ('Tardigrades Will Inherit The Earth') 32-bit
Writing library : libebml v1.3.5 + v1.4.8
Cover : Yes
Attachments : cover.jpg

Video
ID : 1
Format : AVC
Format/Info : Advanced Video Codec
Format profile : [email protected]
Format settings, CABAC : Yes
Format settings, ReFrames : 4 frames
Codec ID : V_MPEG4/ISO/AVC
Duration : 1 h 39 min
Bit rate : 2 599 kb/s
Width : 1 024 pixels
Height : 432 pixels
Display aspect ratio : 2.40:1
Frame rate mode : Constant
Frame rate : 24.000 FPS
Color space : YUV
Chroma subsampling : 4:2:0
Bit depth : 8 bits
Scan type : Progressive
Bits/(Pixel*Frame) : 0.245
Stream size : 1.80 GiB (87%)
Writing library : core 157 r2935 545de2f
Encoding settings : cabac=1 / ref=3 / deblock=1:-1:-1 / analyse=0x3:0x113 / me=hex / subme=7 / psy=1 / psy_rd=1.00:0.15 / mixed_ref=1 / me_range=16 / chroma_me=1 / trellis=1 / 8x8dct=1 / cqm=0 / deadzone=21,11 / fast_pskip=1 / chroma_qp_offset=-3 / threads=12 / lookahead_threads=2 / sliced_threads=0 / nr=0 / decimate=1 / interlaced=0 / bluray_compat=0 / constrained_intra=0 / bframes=3 / b_pyramid=2 / b_adapt=1 / b_bias=0 / direct=1 / weightb=1 / open_gop=0 / weightp=2 / keyint=240 / keyint_min=24 / scenecut=40 / intra_refresh=0 / rc_lookahead=40 / rc=2pass / mbtree=1 / bitrate=2599 / ratetol=1.0 / qcomp=0.60 / qpmin=0 / qpmax=69 / qpstep=4 / cplxblur=20.0 / qblur=0.5 / ip_ratio=1.40 / aq=1:1.00
Default : Yes
Forced : No

Audio #1
ID : 2
Format : AC-3
Format/Info : Audio Coding 3
Mode extension : CM (complete main)
Format settings, Endianness : Big
Codec ID : A_AC3
Duration : 1 h 39 min
Bit rate mode : Constant
Bit rate : 192 kb/s
Channel(s) : 2 channels
Channel positions : Front: L R
Sampling rate : 48.0 kHz
Frame rate : 31.250 FPS (1536 spf)
Compression mode : Lossy
Stream size : 136 MiB (6%)
Title : К1
Language : Ukrainian
Default : Yes
Forced : Yes

Audio #2
ID : 3
Format : AC-3
Format/Info : Audio Coding 3
Mode extension : CM (complete main)
Format settings, Endianness : Big
Codec ID : A_AC3
Duration : 1 h 39 min
Bit rate mode : Constant
Bit rate : 192 kb/s
Channel(s) : 2 channels
Channel positions : Front: L R
Sampling rate : 48.0 kHz
Frame rate : 31.250 FPS (1536 spf)
Compression mode : Lossy
Stream size : 136 MiB (6%)
Language : English
Default : No
Forced : No

Text
ID : 4
Format : UTF-8
Codec ID : S_TEXT/UTF8
Codec ID/Info : UTF-8 Plain Text
Duration : 1 h 26 min
Bit rate : 4 b/s
Count of elements : 95
Stream size : 2.86 KiB (0%)
Language : English
Default : Yes
Forced : No
Скріншоти














Джерело:
За українську доріжку дякую п. Dvorsky, rooster
За постер дякую пану zgryvus
Особиста оцінка: не дивився


Срібний реліз (на рейтинг впливає 50% завантаженого)
 Трекер:    Зареєстрований   

Завантажити / скачати фільм українською



відео для новачків



 Зареєстрований:   2019-11-09 13:05
 Розмір:   2.07 GB 
 Оцінка фільму:   9/10 (Голосів: 10)
   
Інші релізи
   Небеса у вогні / Heaven's Burning (1997) rooster  3 / 0   1.37 GB   2010-09-07 14:59 
palmotron 
Новенький


З нами з: 27.11.08
Востаннє: 18.11.19
Повідомлень: 17

2019-11-13 10:44  
Непоганий, але в ті часи, знімали значно кращі...
+380954897458 
VIP


З нами з: 02.06.17
Востаннє: 20.11.19
Повідомлень: 487

2019-11-13 22:16  
palmotron
Це ж австралійське кіно, тому вимагає поблажливого ставлення. :-))

Ваш часовий пояс: GMT + 2 Години

Нова тема   Відповісти