13-й воїн / The 13th Warrior (1999) 1080p H.265 2xUkr/Eng | Sub Ukr/Eng

Нові коментарі

Нова тема   Відповісти
Останній раз роздавалося coltojkee (2020-08-13)
Автор Повідомлення
Anonymous 







2019-11-09 12:33  
13-й воїн / The 13th Warrior (1999) 1080p H.265 2xUkr/Eng | Sub Ukr/Eng

13-й воїн / The 13th Warrior (1999) 1080p H.265 2xUkr/Eng | Sub Ukr/Eng


Жанр: бойовик, фентезі, пригодницький
Країна: США
Кінокомпанія: Touchstone Pictures
Режисер: Джон МакТірнан / John McTiernan
Актори: Антоніо Бандерас /Antonio Banderas/, Дайен Венора /Diane Venora/, Омар Шаріф /Omar Sharif/, Владимир Кулич /Vladimir Kulich/, Денніс Сторхой /Dennis Storhoi

Сюжет:
Ахмед ібн Фахдлан, витончений аристократ і поет, як покарання за любов відбув посланцем цивілізованого Сходу на варварську Північ, до диких і неприборканих вікінгів. Ці хоробрі воїни готувалися до походу проти таємничого племені Пожирачів Трупів, що спустошує села і залишає після себе купу людських скелетів.
За стародавнім повір'ям, тільки тринадцять воїнів зможуть здолати звіроподібного ворога. Але, щоб пророцтво збулося, один із сміливців повинен бути чужоземцем... Волею щасливого випадку або зловісної долі, колишній поет, а нині тринадцятий воїн бере до рук зброю і відправляється туди, де замовкають навіть безстрашні вікінги, щоб випадково не назвати свій страх на ім'я.

Тривалість: 01:42:46
Якість:

Відео:
кодек: H.265 (HEVC)
розмір кадру: 1920 x 816
бітрейт: 10 941 кб/с
бітова глибина: 10 біт

Увага! Перед завантаженням переконайтесь, що ваш пристрій відтворення (та/або ПЗ) підтримує H.265 (HEVC)

Аудіо # 1:
мова: українська
переклад: багатоголосий закадровий ,
кодек: 5.1
бітрейт: 1510 кб/с

Аудіо # 2:
мова: українська
переклад: двоголосий закадровий
кодек: AC-3 5.1
бітрейт: 384 кб/с

Аудіо # 3:
мова: англійська
переклад: оригінал
кодек: 5.1
бітрейт: 1510 кб/с

Субтитри # 1: (Full)
мова: українська
тип: програмні (м'які)
формат: *.srt

Субтитри # 2: (Full)
мова: англійська
тип: програмні (м'які)
формат: *.srt


Info
Код:
General
Unique ID                                : 191922925525834713240551153178740066981 (0x906302CC352511B4F1A22CD6DF010AA5)
Complete name                            : The 13th Warrior (1999) 1080p H.265 [2xUKR_ENG] [Hurtom].
Format                                   :
Format version                           : Version 4
File size                                : 10.3 GiB
Duration                                 : 1 h 42 min
Overall bit rate                         : 14.3 Mb/s
Movie name                               : 13-й воїн / The 13th Warrior (1999)
Encoded date                             : UTC 2019-11-07 21:41:32
Writing application                      : v20.0.0 ('I Am The Sun') 64-bit
Writing library                          : libebml v1.3.5 + v1.4.8
Cover                                    : Yes
Attachments                              : Cover.jpg

Video
ID                                       : 1
Format                                   : HEVC
Format/Info                              : High Efficiency Video Coding
Format profile                           : Main [email protected]@High
Codec ID                                 : V_MPEGH/ISO/HEVC
Duration                                 : 1 h 42 min
Bit rate                                 : 10.9 Mb/s
Width                                    : 1 920 pixels
Height                                   : 816 pixels
Display aspect ratio                     : 2.35:1
Frame rate mode                          : Constant
Frame rate                               : 23.976 (24000/1001) FPS
Color space                              : YUV
Chroma subsampling                       : 4:2:0
Bit depth                                : 10 bits
Bits/(Pixel*Frame)                       : 0.291
Stream size                              : 7.85 GiB (76%)
Title                                    : 13-й воїн / The 13th Warrior (1999)
Writing library                          : x265 3.2+5-354901970679:[Windows][clang 8.0.1][64 bit] 10bit
Encoding settings                        : cpuid=1111039 / frame-threads=9 / numa-pools=8 / wpp / no-pmode / no-pme / no-psnr / no-ssim / log-level=3 / input-csp=1 / input-res=1920x816 / interlace=0 / total-frames=0 / level-idc=41 / high-tier=1 / uhd-bd=0 / ref=5 / allow-non-conformance / no-repeat-headers / annexb / aud / no-hrd / info / hash=0 / no-temporal-layers / open-gop / min-keyint=23 / keyint=240 / gop-lookahead=0 / bframes=12 / b-adapt=2 / b-pyramid / bframe-bias=0 / rc-lookahead=60 / lookahead-slices=4 / scenecut=40 / radl=0 / no-splice / no-intra-refresh / ctu=32 / min-cu-size=8 / rect / amp / max-tu-size=32 / tu-inter-depth=4 / tu-intra-depth=4 / limit-tu=0 / rdoq-level=2 / dynamic-rd=0.00 / no-ssim-rd / signhide / no-tskip / nr-intra=0 / nr-inter=0 / no-constrained-intra / no-strong-intra-smoothing / max-merge=5 / limit-refs=3 / limit-modes / me=3 / subme=7 / merange=57 / temporal-mvp / no-frame-dup / no-hme / weightp / weightb / no-analyze-src-pics / deblock=-3:-3 / no-sao / no-sao-non-deblock / rd=6 / selective-sao=0 / no-early-skip / no-rskip / no-fast-intra / no-tskip-fast / no-cu-lossless / no-b-intra / no-splitrd-skip / rdpenalty=0 / psy-rd=2.00 / psy-rdoq=1.00 / no-rd-refine / no-lossless / cbqpoffs=0 / crqpoffs=0 / rc=abr / bitrate=10938 / qcomp=0.65 / qpstep=4 / stats-write=0 / stats-read=1 / cplxblur=20.0 / qblur=0.5 / vbv-maxrate=50000 / vbv-bufsize=50000 / vbv-init=0.9 / ipratio=1.40 / pbratio=1.30 / aq-mode=3 / aq-strength=1.00 / no-cutree / zone-count=0 / no-strict-cbr / qg-size=32 / no-rc-grain / qpmax=69 / qpmin=0 / no-const-vbv / sar=1 / overscan=0 / videoformat=5 / range=0 / colorprim=2 / transfer=2 / colormatrix=2 / chromaloc=0 / display-window=0 / cll=0,0 / min-luma=0 / max-luma=1023 / log2-max-poc-lsb=8 / vui-timing-info / vui-hrd-info / slices=1 / no-opt-qp-pps / no-opt-ref-list-length-pps / no-multi-pass-opt-rps / scenecut-bias=0.05 / no-opt-cu-delta-qp / aq-motion / no-hdr / no-hdr-opt / no-dhdr10-opt / no-idr-recovery-sei / analysis-reuse-level=5 / scale-factor=0 / refine-intra=0 / refine-inter=0 / refine-mv=1 / refine-ctu-distortion=0 / no-limit-sao / ctu-info=0 / no-lowpass-dct / refine-analysis-type=0 / copy-pic=1 / max-ausize-factor=1.0 / no-dynamic-refine / no-single-sei / no-hevc-aq / no-svt / no-field / qp-adaptation-range=1.00
Language                                 : English
Default                                  : Yes
Forced                                   : No
Color range                              : Limited

Audio #1
ID                                       : 2
Format                                   :
Format/Info                              : Digital Theater Systems
Codec ID                                 : A_DTS
Duration                                 : 1 h 42 min
Bit rate mode                            : Constant
Bit rate                                 : 1 509 kb/s
Channel(s)                               : 6 channels
Channel layout                           : C L R Ls Rs LFE
Sampling rate                            : 48.0 kHz
Frame rate                               : 93.750 FPS (512 SPF)
Bit depth                                : 16 bits
Compression mode                         : Lossy
Delay relative to video                  : 21 ms
Stream size                              : 1.08 GiB (11%)
Title                                    : / 5.1 Ch / 1509 kbps / БЗ / ICTV, Novy Kanal
Language                                 : Ukrainian
Default                                  : Yes
Forced                                   : Yes

Audio #2
ID                                       : 3
Format                                   : AC-3
Format/Info                              : Audio Coding 3
Commercial name                          : Dolby Digital
Codec ID                                 : A_AC3
Duration                                 : 1 h 42 min
Bit rate mode                            : Constant
Bit rate                                 : 384 kb/s
Channel(s)                               : 6 channels
Channel layout                           : L R C LFE Ls Rs
Sampling rate                            : 48.0 kHz
Frame rate                               : 31.250 FPS (1536 SPF)
Bit depth                                : 16 bits
Compression mode                         : Lossy
Stream size                              : 282 MiB (3%)
Title                                    : / 5.1 Ch / 384 kbps / ДЗ / 1+1
Language                                 : Ukrainian
Service kind                             : Complete Main
Default                                  : No
Forced                                   : No

Audio #3
ID                                       : 4
Format                                   :
Format/Info                              : Digital Theater Systems
Codec ID                                 : A_DTS
Duration                                 : 1 h 42 min
Bit rate mode                            : Constant
Bit rate                                 : 1 509 kb/s
Channel(s)                               : 6 channels
Channel layout                           : C L R Ls Rs LFE
Sampling rate                            : 48.0 kHz
Frame rate                               : 93.750 FPS (512 SPF)
Bit depth                                : 16 bits
Compression mode                         : Lossy
Stream size                              : 1.08 GiB (11%)
Title                                    : / 5.1 Ch / 1509 kbps / Original
Language                                 : English
Default                                  : No
Forced                                   : No

Text #1
ID                                       : 5
Format                                   : UTF-8
Codec ID                                 : S_TEXT/UTF8
Codec ID/Info                            : UTF-8 Plain Text
Duration                                 : 1 h 36 min
Bit rate                                 : 45 b/s
Count of elements                        : 681
Stream size                              : 32.1 KiB (0%)
Title                                    : Full
Language                                 : Ukrainian
Default                                  : Yes
Forced                                   : No

Text #2
ID                                       : 6
Format                                   : UTF-8
Codec ID                                 : S_TEXT/UTF8
Codec ID/Info                            : UTF-8 Plain Text
Duration                                 : 1 h 36 min
Bit rate                                 : 28 b/s
Count of elements                        : 707
Stream size                              : 20.1 KiB (0%)
Title                                    : Full
Language                                 : English
Default                                  : No
Forced                                   : No

Menu
00:00:00.000                             : :00:00:00.000
00:05:00.000                             : :00:05:00.000
00:10:00.000                             : :00:10:00.000
00:15:00.000                             : :00:15:00.000
00:20:00.000                             : :00:20:00.000
00:25:00.000                             : :00:25:00.000
00:30:00.000                             : :00:30:00.000
00:35:00.000                             : :00:35:00.000
00:40:00.000                             : :00:40:00.000
00:45:00.000                             : :00:45:00.000
00:50:00.000                             : :00:50:00.000
00:55:00.000                             : :00:55:00.000
01:00:00.000                             : :01:00:00.000
Світлини




Джерело: &
Особиста оцінка: 0 - не дивився


 Трекер:    Зареєстрований   

Завантажити / скачати фільм українською



відео для новачків



 Зареєстрований:   2019-11-09 12:33
 Розмір:   10.3 GB 
 Оцінка фільму:   9.7/10 (Голосів: 7)
   
Інші релізи
   13-й воїн / The 13th Warrior (1999) AVC 2xUkr/Eng | sub Ukr/Eng Maters  1 / 0   2.46 GB   2019-10-27 13:41 
   13-й воїн / The 13th Warrior (1999) Remux 1080p 2xUkr/Eng | Sub Ukr/Ger/Eng kryk-v.ya.  5 / 0   19.39 GB   2018-10-10 19:25 
   13-й воїн / The 13th Warrior (1999) 2xUkr/Eng Arsenfpu  6 / 0   2.08 GB   2017-12-06 23:01 
   13-й воїн / The 13th Warrior (1999) 1080p 2xUkr/Eng | Sub Ukr/Eng kvvdvd  2 / 0   10.02 GB   2016-11-11 00:20 
   13-й воїн / The 13th Warrior (1999) 720р Ukr/Eng | Sub Eng DiGen  2 / 0   4.08 GB   2010-07-24 03:25 
   13-й воїн / The 13th Warrior (1999) 2xUkr/Eng | Sub Ukr/Eng _oles  3 / 0   1.73 GB   2009-11-13 10:35 
-VJ- 
VIP


З нами з: 01.11.09
Востаннє: 13.08.20
Повідомлень: 762

2019-11-10 11:45  
Дивно, кодек економніший, а розмір порівняно з релізом 2016 став навіть більшим Happy
Anonymous 







2019-11-10 11:47  
-VJ-
людина, яка кодувала - вирішила кодувати не в crf, а в бітрейт. Думаю, тому так.

Ваш часовий пояс: GMT + 2 Години

Нова тема   Відповісти