Марс атакує! / Mars Attacks! (1996) 1080p H.265 Ukr/Eng | Sub Eng

Нові коментарі

Нова тема   Відповісти
Автор Повідомлення
Anonymous 







2019-11-09 11:31  
Марс атакує! / Mars Attacks! (1996) 1080p H.265 Ukr/Eng | Sub Eng

Марс атакує! / Mars Attacks! (1996) 1080p H.265 Ukr/Eng | Sub Eng


Жанр: комедія, фантастика
Країна: США
Кінокомпанія: Tim Burton Productions, Warner Bros.
Режисер: Тім Бартон / Timothy Burton
Актори: Джек Ніколсон /Jack Nicholson, Гленн Клоуз /Glenn Close, Аннетт Бенінг /Annette Bening, Пірс Броснан /Pierce Brosnan, Денні Де Віто /Danny De Vito, Мартін Шорт /Martin Short, Сара Джессіка Паркер /Sarah Jessica Parker, Майкл Джей Фокс /Michael J. Fox, Род Стайгер /Rod Steiger, Том Джонс, Лукас Хаас /Lukas Haas, Наталі Портман /Natalie Portman, Джим Браун /Jim Brown, Ліза Марі /Lisa Marie та інші

Сюжет:
На нашу планету напали. Марсіани, безпристрасні і бездушні маленькі зелені створіння, висаджуються в пустелі зі своїх космічних кораблів, а потім наступають на всіх напрямках. Столичний Вашингтон, Лас-Вегас і інші міста піддаються потужним вибухам, навколо лише одна розруха…
Президент США закликає командування своїх збройних сил застосувати всі міри та засоби, проте думки самих командуючих, двох генералів робіглися. «Розбити і повернути їх на Марс!», — вважає генерал Деккер. «Домовитись про мир», — заперечує генерал Кейсі.
Подальші події повинні визначити, хто ж із них правий.

Тривалість: 01:45:45
Якість:

Відео:
кодек: H.265 (HEVC)
розмір кадру: 1920 x 796
бітрейт: 5 468 кб/с
бітова глибина: 10 біт

Увага! Перед завантаженням переконайтесь, що ваш пристрій відтворення (та/або ПЗ) підтримує H.265 (HEVC)

Аудіо # 1:
мова: українська
переклад: багатоголосий закадровий
кодек: 5.1
бітрейт: 1510 кб/с

Аудіо # 2:
мова: англійська
переклад: оригінал
кодек: 5.1
бітрейт: 1510 кб/с

Субтитри # 1: (Full)
мова: англійська
тип: програмні (м'які)
формат: *.srt


Info
Код:
General
Unique ID                                : 58487391118280216175725801612516522285 (0x2C004304D3478A1E30B2EEE4A7CFF92D)
Complete name                            : Mars Attacks (1996) 1080p H.265 [UKR_ENG] [Hurtom].
Format                                   :
Format version                           : Version 4
File size                                : 6.27 GiB
Duration                                 : 1 h 45 min
Overall bit rate                         : 8 489 kb/s
Movie name                               : Марс атакує! / Mars Attacks! (1996)
Encoded date                             : UTC 2019-11-07 21:55:27
Writing application                      : v20.0.0 ('I Am The Sun') 64-bit
Writing library                          : libebml v1.3.5 + v1.4.8
Cover                                    : Yes
Attachments                              : Cover.jpg

Video
ID                                       : 1
Format                                   : HEVC
Format/Info                              : High Efficiency Video Coding
Format profile                           : Main [email protected]@High
Codec ID                                 : V_MPEGH/ISO/HEVC
Duration                                 : 1 h 45 min
Bit rate                                 : 5 468 kb/s
Width                                    : 1 920 pixels
Height                                   : 796 pixels
Display aspect ratio                     : 2.40:1
Frame rate mode                          : Constant
Frame rate                               : 23.976 (23976/1000) FPS
Original frame rate                      : 23.976 (24000/1001) FPS
Color space                              : YUV
Chroma subsampling                       : 4:2:0
Bit depth                                : 10 bits
Bits/(Pixel*Frame)                       : 0.149
Stream size                              : 4.04 GiB (64%)
Title                                    : Марс атакує! / Mars Attacks! (1996)
Writing library                          : x265 3.1.2+1-76650bab70f9:[Windows][MSVC 1922][64 bit] 10bit
Encoding settings                        : cpuid=1111039 / frame-threads=3 / numa-pools=12 / wpp / no-pmode / no-pme / no-psnr / no-ssim / log-level=2 / input-csp=1 / input-res=1920x796 / interlace=0 / total-frames=144307 / level-idc=41 / high-tier=1 / uhd-bd=0 / ref=5 / no-allow-non-conformance / no-repeat-headers / annexb / no-aud / no-hrd / info / hash=0 / no-temporal-layers / open-gop / min-keyint=23 / keyint=240 / gop-lookahead=0 / bframes=12 / b-adapt=2 / b-pyramid / bframe-bias=0 / rc-lookahead=60 / lookahead-slices=4 / scenecut=40 / radl=0 / no-splice / no-intra-refresh / ctu=32 / min-cu-size=8 / rect / amp / max-tu-size=32 / tu-inter-depth=4 / tu-intra-depth=4 / limit-tu=1 / rdoq-level=2 / dynamic-rd=0.00 / no-ssim-rd / signhide / no-tskip / nr-intra=0 / nr-inter=0 / no-constrained-intra / no-strong-intra-smoothing / max-merge=4 / limit-refs=2 / limit-modes / me=3 / subme=7 / merange=57 / temporal-mvp / weightp / weightb / no-analyze-src-pics / deblock=-3:-3 / no-sao / no-sao-non-deblock / rd=6 / no-early-skip / no-rskip / no-fast-intra / no-tskip-fast / no-cu-lossless / no-b-intra / no-splitrd-skip / rdpenalty=0 / psy-rd=2.00 / psy-rdoq=1.00 / no-rd-refine / no-lossless / cbqpoffs=0 / crqpoffs=0 / rc=crf / crf=20.0 / qcomp=0.65 / qpstep=4 / stats-write=0 / stats-read=0 / vbv-maxrate=50000 / vbv-bufsize=50000 / vbv-init=0.9 / crf-max=0.0 / crf-min=0.0 / ipratio=1.40 / pbratio=1.30 / aq-mode=1 / aq-strength=1.00 / no-cutree / zone-count=0 / no-strict-cbr / qg-size=32 / no-rc-grain / qpmax=69 / qpmin=0 / no-const-vbv / sar=1 / overscan=0 / videoformat=5 / range=0 / colorprim=1 / transfer=1 / colormatrix=1 / chromaloc=0 / display-window=0cll=0,0 / min-luma=0 / max-luma=1023 / log2-max-poc-lsb=8 / vui-timing-info / vui-hrd-info / slices=1 / no-opt-qp-pps / no-opt-ref-list-length-pps / no-multi-pass-opt-rps / scenecut-bias=0.05 / no-opt-cu-delta-qp / no-aq-motion / no-hdr / no-hdr-opt / no-dhdr10-opt / no-idr-recovery-sei / analysis-reuse-level=5 / scale-factor=0 / refine-intra=0 / refine-inter=0 / refine-mv=0 / refine-ctu-distortion=0 / no-limit-sao / ctu-info=0 / no-lowpass-dct / refine-analysis-type=0 / copy-pic=1 / max-ausize-factor=1.0 / no-dynamic-refine / no-single-sei / no-hevc-aq / no-svt / no-field / qp-adaptation-range=1.00
Default                                  : Yes
Forced                                   : No
Color range                              : Limited
Color primaries                          : BT.709
Transfer characteristics                 : BT.709
Matrix coefficients                      : BT.709

Audio #1
ID                                       : 2
Format                                   :
Format/Info                              : Digital Theater Systems
Codec ID                                 : A_DTS
Duration                                 : 1 h 45 min
Bit rate mode                            : Constant
Bit rate                                 : 1 509 kb/s
Channel(s)                               : 6 channels
Channel layout                           : C L R Ls Rs LFE
Sampling rate                            : 48.0 kHz
Frame rate                               : 93.750 FPS (512 SPF)
Bit depth                                : 24 bits
Compression mode                         : Lossy
Stream size                              : 1.11 GiB (18%)
Title                                    : / 5.1 Ch / 1509 kbps / БЗ / Novy Kanal
Language                                 : Ukrainian
Default                                  : Yes
Forced                                   : Yes

Audio #2
ID                                       : 3
Format                                   :
Format/Info                              : Digital Theater Systems
Codec ID                                 : A_DTS
Duration                                 : 1 h 45 min
Bit rate mode                            : Constant
Bit rate                                 : 1 509 kb/s
Channel(s)                               : 6 channels
Channel layout                           : C L R Ls Rs LFE
Sampling rate                            : 48.0 kHz
Frame rate                               : 93.750 FPS (512 SPF)
Bit depth                                : 24 bits
Compression mode                         : Lossy
Stream size                              : 1.11 GiB (18%)
Title                                    : / 5.1 Ch / 1509 kbps / Original
Language                                 : English
Default                                  : No
Forced                                   : No

Text
ID                                       : 4
Format                                   : UTF-8
Codec ID                                 : S_TEXT/UTF8
Codec ID/Info                            : UTF-8 Plain Text
Duration                                 : 1 h 39 min
Bit rate                                 : 44 b/s
Count of elements                        : 978
Stream size                              : 32.4 KiB (0%)
Title                                    : Full
Language                                 : English
Default                                  : No
Forced                                   : No

Menu
00:00:00.000                             : en:1
00:01:24.835                             : en:2
00:04:01.825                             : en:3
00:06:41.192                             : en:4
00:09:19.559                             : en:5
00:12:40.009                             : en:6
00:17:31.801                             : en:7
00:21:02.136                             : en:8
00:24:05.444                             : en:9
00:26:42.309                             : en:10
00:27:33.402                             : en:11
00:29:00.364                             : en:12
00:35:25.123                             : en:13
00:43:25.269                             : en:14
00:45:12.501                             : en:15
00:46:37.003                             : en:16
00:47:52.036                             : en:17
00:51:44.226                             : en:18
00:55:23.695                             : en:19
00:57:46.088                             : en:20
00:58:30.215                             : en:21
00:59:44.873                             : en:22
01:04:31.785                             : en:23
01:07:28.795                             : en:24
01:10:59.172                             : en:25
01:12:33.516                             : en:26
01:15:22.977                             : en:27
01:17:42.658                             : en:28
01:19:36.313                             : en:29
01:20:58.103                             : en:30
01:23:35.969                             : en:31
01:25:24.911                             : en:32
01:27:09.307                             : en:33
01:30:17.120                             : en:34
01:30:49.778                             : en:35
01:33:58.508                             : en:36
01:35:57.085                             : en:37
01:40:03.039                             : en:38
Світлини




Джерело: &
Особиста оцінка: 10 - без зайвих вагань рекомендую всім!


 Трекер:    Зареєстрований   

Завантажити / скачати фільм українською



відео для новачків



 Зареєстрований:   2019-11-09 11:31
 Розмір:   6.27 GB 
 Оцінка фільму:   9.7/10 (Голосів: 3)
   
Інші релізи
   Марс атакує! / Mars Attacks! (1996) AVC 2xUkr/Eng Arsenfpu  5 / 0   2.39 GB   2020-04-24 18:37 
   Марс атакує! / Mars Attacks! (1996) 1080p Ukr/Eng | Sub Eng drop_plz  0 / 0   10.35 GB   2018-08-17 15:41 
   Марс атакує! / Mars Attacks! (1996) [MP4, 640x] apvAltisimo  0 / 0   681 MB   2016-06-06 14:06 
   Марс атакує! / Mars Attacks! (1996) patriot2305  3 / 0   1.45 GB   2014-07-20 17:50 
   Марс атакує! / Mars Attacks! (1996) 720p Ukr/Eng | Sub Eng 11FrYkT  4 / 0   5.09 GB   2012-09-22 10:05 
Ваш часовий пояс: GMT + 2 Години

Нова тема   Відповісти