Кулі гніву / Balls of Fury (2007) AVC Ukr/Eng | sub Eng

Нові коментарі

Нова тема   Відповісти
Автор Повідомлення
Arsenfpu 
Відео Гуртом - фільмокрай
Відео Гуртом - фільмокрай


З нами з: 30.04.09
Востаннє: 20.11.19
Повідомлень: 6239

2019-11-09 00:08  
Кулі гніву / Balls of Fury (2007) AVC Ukr/Eng | sub Eng

Кулі гніву / Balls of Fury (2007) AVC Ukr/Eng | sub Eng


Жанр: комедія, спорт, кримінальний
Країна: США



Кінокомпанія: Rogue Pictures
Режисер: Бен Гарант
Актори: Ден Фоглер, Крістофер Уокен, Джесі Адамс, Дідріх Бейдер, Адам Боброу

Сюжет:
Ренді Дайтона - обдарований гравець в пінґ-понґ, який зганьбився на світовій арені і вимушений заробляти, виступаючи в шоу у Лас-Веґасі. Але шанс на повернення у світ великого спорту йому надає ЦРУ. Треба лише взяти участь в підпільному турнірі, який проводить у себе в маєтку кримінальний авторитет Фанґ - відомий душогуб і ентузіаст настільного тенісу.


Тривалість: 01:30:18
Якість:
Відео:
кодек:
розмір кадру: 1 024 х 560
бітрейт: 2 499 кб/с

Аудіо # 1:
мова: українська
переклад: багатоголосий закадровий
кодек: 2.0
бітрейт: 192 кб/с

Аудіо # 2:
мова: англійська
переклад: оригінал
кодек: 2.0
бітрейт: 192 кб/с

Субтитри:
мова: англійська
тип: програмні (м'які)
формат: *.srt
Про файл
General
Unique ID : 66226223875781920874326564806457294131 (0x31D2B4EEA8033C637A1A928A846FFD33)
Complete name : C:\Balls of Fury (2007) [Ukr,Eng] AVC [Hurtom].
Format :
Format version : Version 4 / Version 2
File size : 1.82 GiB
Duration : 1 h 30 min
Overall bit rate : 2 882 kb/s
Movie name : Кулі гніву / Balls of Fury (2007)
Encoded date : UTC 2019-11-08 21:44:55
Writing application : v21.0.0 ('Tardigrades Will Inherit The Earth') 32-bit
Writing library : libebml v1.3.5 + v1.4.8
Cover : Yes
Attachments : cover.jpg

Video
ID : 1
Format : AVC
Format/Info : Advanced Video Codec
Format profile : [email protected]
Format settings, CABAC : Yes
Format settings, ReFrames : 4 frames
Codec ID : V_MPEG4/ISO/AVC
Duration : 1 h 30 min
Bit rate : 2 499 kb/s
Width : 1 024 pixels
Height : 560 pixels
Display aspect ratio : 1.85:1
Frame rate mode : Constant
Frame rate : 23.976 (24000/1001) FPS
Color space : YUV
Chroma subsampling : 4:2:0
Bit depth : 8 bits
Scan type : Progressive
Bits/(Pixel*Frame) : 0.182
Stream size : 1.57 GiB (87%)
Writing library : core 157 r2935 545de2f
Encoding settings : cabac=1 / ref=3 / deblock=1:-1:-1 / analyse=0x3:0x113 / me=hex / subme=7 / psy=1 / psy_rd=1.00:0.15 / mixed_ref=1 / me_range=16 / chroma_me=1 / trellis=1 / 8x8dct=1 / cqm=0 / deadzone=21,11 / fast_pskip=1 / chroma_qp_offset=-3 / threads=12 / lookahead_threads=2 / sliced_threads=0 / nr=0 / decimate=1 / interlaced=0 / bluray_compat=0 / constrained_intra=0 / bframes=3 / b_pyramid=2 / b_adapt=1 / b_bias=0 / direct=1 / weightb=1 / open_gop=0 / weightp=2 / keyint=240 / keyint_min=23 / scenecut=40 / intra_refresh=0 / rc_lookahead=40 / rc=2pass / mbtree=1 / bitrate=2499 / ratetol=1.0 / qcomp=0.60 / qpmin=0 / qpmax=69 / qpstep=4 / cplxblur=20.0 / qblur=0.5 / ip_ratio=1.40 / aq=1:1.00
Default : Yes
Forced : No

Audio #1
ID : 2
Format : AC-3
Format/Info : Audio Coding 3
Mode extension : CM (complete main)
Format settings, Endianness : Big
Codec ID : A_AC3
Duration : 1 h 30 min
Bit rate mode : Constant
Bit rate : 192 kb/s
Channel(s) : 2 channels
Channel positions : Front: L R
Sampling rate : 48.0 kHz
Frame rate : 31.250 FPS (1536 spf)
Compression mode : Lossy
Stream size : 124 MiB (7%)
Title : Cine+
Language : Ukrainian
Default : Yes
Forced : Yes

Audio #2
ID : 3
Format : AC-3
Format/Info : Audio Coding 3
Mode extension : CM (complete main)
Format settings, Endianness : Big
Codec ID : A_AC3
Duration : 1 h 30 min
Bit rate mode : Constant
Bit rate : 192 kb/s
Channel(s) : 2 channels
Channel positions : Front: L R
Sampling rate : 48.0 kHz
Frame rate : 31.250 FPS (1536 spf)
Compression mode : Lossy
Stream size : 124 MiB (7%)
Language : English
Default : No
Forced : No

Text
ID : 4
Format : UTF-8
Codec ID : S_TEXT/UTF8
Codec ID/Info : UTF-8 Plain Text
Duration : 1 h 25 min
Bit rate : 51 b/s
Count of elements : 1032
Stream size : 32.0 KiB (0%)
Language : English
Default : Yes
Forced : No
Скріншоти














Джерело:
За українську доріжку дякую п. Gelios, MAKAPOHHIK, karvai0
За постер дякую пану bober-mober
Особиста оцінка: не дивився


 Трекер:    Зареєстрований   

Завантажити / скачати фільм українською



відео для новачків



 Зареєстрований:   2019-11-09 00:08
 Розмір:   1.82 GB 
 Оцінка фільму:   9.5/10 (Голосів: 8)
   
Інші релізи
   Кулі гніву / Balls of Fury (2007) Ukr/Eng Gelios  3 / 0   1.58 GB   2012-08-22 08:38 
   Кулі гніву / Balls of Fury (2007) Ukr/Eng Givi  3 / 0   1.59 GB   2008-11-09 11:22 
Ваш часовий пояс: GMT + 2 Години

Нова тема   Відповісти