Ліга Чемпіонів 2019-2020 / Група С / 3 тур / Ліга Чемпіонів 2019-2020 / Група С / 4 тур / Динамо Загреб (Хорватія) - Шахтар Донецьк (Україна) / Футбол 2 HD (06.11.2019) 720р

Нові коментарі

Нова тема   Відповісти
Останній раз роздавалося dei2 (2020-10-20)
Автор Повідомлення
Anonymous 







2019-11-08 16:06  
Ліга Чемпіонів 2019-2020 / Група С / 3 тур / Ліга Чемпіонів 2019-2020 / Група С / 4 тур / Динамо Загреб (Хорватія) - Шахтар Донецьк (Україна) / Футбол 2 HD (06.11.2019) 720р

Ліга Чемпіонів 2019-2020 / Група С / 3 тур / Ліга Чемпіонів 2019-2020 / Група С / 4 тур / Динамо Загреб (Хорватія) - Шахтар Донецьк (Україна) / Футбол 2 HD (06.11.2019) 720р


Телеканал: Футбол 2 HD

Опис:
Ліга Чемпіонів 2019-2020 / Група С / 4 тур / Динамо Загреб (Хорватія) - Шахтар Донецьк (Україна)
Тривалість:
01:54:27
Якість:
Відео:
кодек:
розмір кадру: 1280x720
бітрейт: ~3000 кб/с

Аудіо:
мова: українська
переклад: одноголосий закадровий | Круторогов Кирило Ігорович |
кодек: 2.0
бітрейт: 128 кб/с
Склади:


Скріншоти:






Info
Код:

General
Complete name                            : UEFA Champions League 2019-2020 » Group C » Matchday 4 » Dinamo Zagreb - Shakhtar Donetsk 720p\Dinamo Zagreb - Shakhtar Donetsk.
Format                                   :
Format version                           : Version 4
File size                                : 2.47 GiB
Duration                                 : 1 h 54 min
Overall bit rate                         : 3 083 kb/s
Writing application                      : VideoReDo (Lavf56.25.101)
Writing library                          : VideoReDo (Lavf56.25.101)

Video
ID                                       : 1
Format                                   : AVC
Format/Info                              : Advanced Video Codec
Format profile                           : [email protected]
Format settings                          : CABAC / 4 Ref Frames
Format settings, CABAC                   : Yes
Format settings, RefFrames               : 4 frames
Format settings, GOP                     : M=2, N=15
Codec ID                                 : V_MPEG4/ISO/AVC
Duration                                 : 1 h 54 min
Bit rate                                 : 2 894 kb/s
Width                                    : 1 280 pixels
Height                                   : 720 pixels
Display aspect ratio                     : 16:9
Frame rate mode                          : Constant
Frame rate                               : 50.000 FPS
Color space                              : YUV
Chroma subsampling                       : 4:2:0
Bit depth                                : 8 bits
Scan type                                : Progressive
Bits/(Pixel*Frame)                       : 0.063
Stream size                              : 2.31 GiB (94%)
Default                                  : No
Forced                                   : No

Audio
ID                                       : 2
Format                                   : AC-3
Format/Info                              : Audio Coding 3
Commercial name                          : Dolby Digital
Codec ID                                 : A_AC3
Duration                                 : 1 h 54 min
Bit rate mode                            : Constant
Bit rate                                 : 128 kb/s
Channel(s)                               : 2 channels
Channel layout                           : L R
Sampling rate                            : 48.0 kHz
Frame rate                               : 31.250 FPS (1536 SPF)
Bit depth                                : 16 bits
Compression mode                         : Lossy
Stream size                              : 105 MiB (4%)
Language                                 : Ukrainian
Service kind                             : Complete Main
Default                                  : Yes
Forced                                   : No
Джерело:
Особиста оцінка: 8 - мені сподобалося


Бронзовий реліз (на рейтинг впливає 75% завантаженого)
 Трекер:    Зареєстрований   

Завантажити / скачати торрент



відео для новачків



 Зареєстрований:   2019-11-08 16:06
 Розмір:   2.47 GB 
 Оцінка:   9.5/10 (Голосів: 2)
   
Ваш часовий пояс: GMT + 2 Години

Нова тема   Відповісти