Нема куди тікати / Nowhere to Run (1993) Remux 1080p Ukr/Eng | Sub Eng

Нові коментарі

Нова тема   Відповісти
Автор Повідомлення
MakRA 
VIP


З нами з: 10.11.18
Востаннє: 26.01.20
Повідомлень: 695

2019-11-08 00:34  
Нема куди тікати / Nowhere to Run (1993) Remux 1080p Ukr/Eng | Sub Eng


Український постер:

Жанр: екшн, драма, романтичний
Країна: США



Кінокомпанія: Columbia Pictures Corporation
Режисер: Роберт Гармон [Robert Harmon]
Актори: Жан-Клод Ван Дамм [Jean-Claude Van Damme], Розанна Аркетт [Rosanna Arquette], Кіран Калкін [Kieran Culkin], Тед Лівайн [Ted Levine], Тіффані Тобмен [Tiffany Taubman], Едвард Блетчфорд [Edward Blatchford], Ентоні Старк [Anthony Starke], Джосс Екленд [Joss Ackland, Аллан Ґреф [Allan Graf], Леонард Термо [Leonard Termo], Роберт Апіза [Robert Apisa], Джофрі Сі Браун [Jophery C. Brown], Тоні Брубейкер [Tony Brubaker], Рон Говард Джордж [Ron Howard George], Войо Ґоріч [Voyo Goric]

Сюжет:
Сем тікає з в’язниці. Йому немає до кого звернутись за допомогою, але раптово йому виказує підтримку самотня жінка з дітьми. Але у неї є свої проблеми. Злочинці хочуть забрати в неї майно, і використають для цього будь-які методи. Сем вирішує стати на захист тих, хто допоміг йому у скрутну хвилину, не дивлячись на подвійний ризик для себе у цій справі...


Тривалість: 01:34:20
Якість: Remux 1080p
Відео:
кодек:
розмір кадру: 1920 х 1080
бітрейт: 25,9 Mб/с

Аудіо # 1:
мова: українська
переклад: багатоголосий закадровий
кодек: 2.0
бітрейт: 192 кб/с
Про озвучення:
Ролі озвучили:Олег Стальчук (Жан-Клод Ван Дамм), Володимир Терещук, Анатолій Зіновенко та Людмила Чиншева.
Аудіо # 2:
мова: англійська
переклад: оригінал
кодек: LPCM 2.0
бітрейт: 1536 кб/с

Аудіо # 3:
мова: англійська
переклад: оригінал
кодек: 2.0
бітрейт: 192 кб/с

Субтитри # 1: (Full)
мова: англійська
тип: програмні (м'які)
формат: *.srt

Субтитри # 2: (Full)
мова: англійська
тип: пререндерні
формат: *.pgs

Збережено оригінальні розділи, як на Blu-ray.
Info
General
Unique ID : 300014248872212266556952667241593561904 (0xE1B4A47F1CD108F0F2C24C117FC5E330)
Complete name : I:\+Фільмографії- Жан-Клод Ван Дамм [Jean-Claude Van Damme]\Nowhere to Run (1993) Remux 1080p UkrEng Sub Eng [Hurtom].
Format :
Format version : Version 4
File size : 18.4 GiB
Duration : 1 h 34 min
Overall bit rate mode : Variable
Overall bit rate : 27.9 Mb/s
Movie name : Нема куди тікати / Nowhere to Run (1993) Remux 1080p Ukr/Eng | Sub Eng [Hurtom]
Encoded date : UTC 2019-11-07 21:39:42
Writing application : v25.0.0 ('Prog Noir') 64-bit
Writing library : libebml v1.3.6 + v1.4.9
Cover : Yes
Attachments : cover.jpg

Video
ID : 1
Format : AVC
Format/Info : Advanced Video Codec
Format profile : [email protected]
Format settings : CABAC / 2 Ref Frames
Format settings, CABAC : Yes
Format settings, Reference fra : 2 frames
Codec ID : V_MPEG4/ISO/AVC
Duration : 1 h 34 min
Bit rate mode : Variable
Bit rate : 25.9 Mb/s
Width : 1 920 pixels
Height : 1 080 pixels
Display aspect ratio : 16:9
Frame rate mode : Constant
Frame rate : 23.976 (24000/1001) FPS
Color space : YUV
Chroma subsampling : 4:2:0
Bit depth : 8 bits
Scan type : Progressive
Bits/(Pixel*Frame) : 0.521
Stream size : 17.1 GiB (93%)
Title : Nowhere to Run (1993) Remux 1080p Ukr/Eng | Sub Eng [Hurtom]
Language : Ukrainian
Default : Yes
Forced : Yes

Audio #1
ID : 2
Format : AC-3
Format/Info : Audio Coding 3
Commercial name : Dolby Digital
Codec ID : A_AC3
Duration : 1 h 34 min
Bit rate mode : Constant
Bit rate : 192 kb/s
Channel(s) : 2 channels
Channel layout : L R
Sampling rate : 48.0 kHz
Frame rate : 31.250 FPS (1536 SPF)
Bit depth : 16 bits
Compression mode : Lossy
Stream size : 130 MiB (1%)
Title : MVO [ICTV] [УКРАЇНА] 2.0
Language : Ukrainian
Service kind : Complete Main
Default : Yes
Forced : Yes

Audio #2
ID : 3
Format : PCM
Format settings : Little / Signed
Codec ID : A_PCM/INT/LIT
Duration : 1 h 34 min
Bit rate mode : Constant
Bit rate : 1 536 kb/s
Channel(s) : 2 channels
Sampling rate : 48.0 kHz
Frame rate : 200.000 FPS (240 SPF)
Bit depth : 16 bits
Stream size : 1.01 GiB (6%)
Title : Original LPCM 2.0
Language : English
Default : No
Forced : No

Audio #3
ID : 4
Format : AC-3
Format/Info : Audio Coding 3
Commercial name : Dolby Digital
Codec ID : A_AC3
Duration : 1 h 34 min
Bit rate mode : Constant
Bit rate : 192 kb/s
Channel(s) : 2 channels
Channel layout : L R
Sampling rate : 48.0 kHz
Frame rate : 31.250 FPS (1536 SPF)
Bit depth : 16 bits
Compression mode : Lossy
Stream size : 130 MiB (1%)
Title : Original 2.0
Language : English
Service kind : Complete Main
Default : No
Forced : No

Text #1
ID : 5
Format : UTF-8
Codec ID : S_TEXT/UTF8
Codec ID/Info : UTF-8 Plain Text
Duration : 1 h 26 min
Bit rate : 27 b/s
Count of elements : 461
Stream size : 17.3 KiB (0%)
Title : Eng (Full) SRT
Language : English
Default : No
Forced : No

Text #2
ID : 6
Format : PGS
Muxing mode : zlib
Codec ID : S_HDMV/PGS
Codec ID/Info : Picture based subtitle format used on BDs/HD-DVDs
Duration : 1 h 26 min
Bit rate : 12.7 kb/s
Count of elements : 922
Stream size : 7.91 MiB (0%)
Title : Eng (Full) PGS
Language : English
Default : No
Forced : No

Menu
00:00:00.000 : en:Chapter 01
00:06:16.539 : en:Chapter 02
00:11:23.138 : en:Chapter 03
00:20:33.855 : en:Chapter 04
00:26:13.527 : en:Chapter 05
00:31:30.886 : en:Chapter 06
00:38:51.661 : en:Chapter 07
00:46:41.172 : en:Chapter 08
00:48:45.922 : en:Chapter 09
00:54:19.338 : en:Chapter 10
01:00:10.148 : en:Chapter 11
01:06:52.046 : en:Chapter 12
01:12:14.997 : en:Chapter 13
01:19:34.185 : en:Chapter 14
01:24:00.452 : en:Chapter 15
01:27:21.734 : en:Chapter 16
01:34:19.403 : en:Chapter 17
Скріншоти
Джерело: &
За запис з ТБ дякую п. Bohdan237, зведення п. Arsenfpu, постер п. Ermolenko
Особиста оцінка: 9 - давно не бачив настільки якісне кіно


Золотий реліз (завантажене не впливає на рейтинг)
 Трекер:    Зареєстрований   

Завантажити / скачати фільм українською



відео для новачків



 Зареєстрований:   2019-11-08 00:34
 Розмір:   18.35 GB 
 Оцінка фільму:   10/10 (Голосів: 1)
   
Інші релізи
Ваш часовий пояс: GMT + 2 Години

Нова тема   Відповісти