Королева слонів / The Elephant Queen (2019) AVC Eng | Sub Ukr/Eng

Нові коментарі

Нова тема   Відповісти
Автор Повідомлення
Anonymous 







2019-11-07 10:00  
Королева слонів / The Elephant Queen (2019) AVC Eng | Sub Ukr/Eng

Королева слонів / The Elephant Queen (2019) AVC Eng | Sub Ukr/Eng
Український постер:

Королева слонів / The Elephant Queen (2019) AVC Eng | Sub Ukr/Eng


Жанр: документальний, сімейний
Країна: США, Кенія



Кінокомпанія: Deeble & Stone
Режисер: Марк Дібл / Mark Deeble, Вікторія Стоун / Victoria Stone
Актори: Чиветел Еджіофор / Chiwetel Ejiofor

Сюжет:
Афіна - мати, яка зробить усе, що в її силах, щоб захистити своє стадо, коли вони змушені залишити свою територію. Ця епічна подорож проведе глядачів по всій африканській савані разом із сім'єю слонів. Казка про кохання, втрату та повернення додому.
Оригінальний трейлер:


є можливість включити українські субтитри (автопереклад)
Тривалість: 01:36:12
Якість: AVC
Відео:
кодек:
розмір кадру: 720х390
бітрейт: 1100 кб/с

Аудіо:
мова: англійська
переклад: оригінал
кодек: 2.0
бітрейт: 256 кб/с

Субтитри # 1:
мова: українська
тип: програмні (м'які)
формат: *.srt
переклад: Олена Цехмейструк

Субтитри # 2-3:
мова: англійська (повні, SDH)
тип: програмні (м'які)
формат: *.srt
Info
Код:

Complete name               : The Elephant Queen (2019) [Eng sub.Ukr,Eng] AVC [Hurtom].
Format                      :
Format version              : Version 4
File size                   : 935 MiB
Duration                    : 1 h 36 min
Overall bit rate            : 1 359 kb/s
Movie name                  : Королева слонів / The Elephant Queen (2019) [Eng sub.Ukr,Eng] AVC [Hurtom]
Encoded date                : UTC 2019-11-07 06:42:23
Writing application         : v39.0.0 ('In The Waiting Line') 64-bit
Writing library             : libebml v1.3.9 + v1.5.2
Cover                       : Yes
Attachments                 : cover.jpg

Video
ID                          : 1
Format                      : AVC
Format/Info                 : Advanced Video Codec
Format profile              : [email protected]
Format settings             : CABAC / 5 Ref Frames
Format settings, CABAC      : Yes
Format settings, Reference  : 5 frames
Codec ID                    : V_MPEG4/ISO/AVC
Duration                    : 1 h 36 min
Bit rate                    : 1 100 kb/s
Width                       : 720 pixels
Height                      : 390 pixels
Display aspect ratio        : 1.85:1
Original display aspect rat : 1.85:1
Frame rate mode             : Constant
Frame rate                  : 23.976 (24000/1001) FPS
Color space                 : YUV
Chroma subsampling          : 4:2:0
Bit depth                   : 8 bits
Scan type                   : Progressive
Bits/(Pixel*Frame)          : 0.163
Stream size                 : 757 MiB (81%)
Title                       : The.Elephant.Queen.2019..-FGT
Writing library             : core 152 r2851M ba24899
Encoding settings           : cabac=1 / ref=5 / deblock=1:-1:-1 / analyse=0x3:0x113 / me=umh / subme=9 / psy=1 / psy_rd=1.00:0.15 / mixed_ref=1 / me_range=16 / chroma_me=1 / trellis=2 / 8x8dct=1 / cqm=0 / deadzone=21,11 / fast_pskip=1 / chroma_qp_offset=-3 / threads=24 / lookahead_threads=2 / sliced_threads=0 / nr=0 / decimate=1 / interlaced=0 / bluray_compat=0 / constrained_intra=0 / bframes=3 / b_pyramid=2 / b_adapt=2 / b_bias=0 / direct=3 / weightb=1 / open_gop=0 / weightp=2 / keyint=250 / keyint_min=23 / scenecut=40 / intra_refresh=0 / rc_lookahead=50 / rc=2pass / mbtree=1 / bitrate=1100 / ratetol=1.0 / qcomp=0.60 / qpmin=0 / qpmax=69 / qpstep=4 / cplxblur=20.0 / qblur=0.5 / ip_ratio=1.40 / aq=1:1.00
Language                    : English
Default                     : Yes
Forced                      : No

Audio
ID                          : 2
Format                      : LC
Format/Info                 : Advanced Audio Codec Low Complexity
Codec ID                    : A_AAC-2
Duration                    : 1 h 36 min
Bit rate                    : 256 kb/s
Channel(s)                  : 2 channels
Channel layout              : L R
Sampling rate               : 48.0 kHz
Frame rate                  : 46.875 FPS (1024 SPF)
Compression mode            : Lossy
Delay relative to video     : -43 ms
Stream size                 : 176 MiB (19%)
Title                       : Original, 2.0 256 Kbps
Language                    : English
Default                     : Yes
Forced                      : No

Text #1
ID                          : 3
Format                      : UTF-8
Codec ID                    : S_TEXT/UTF8
Codec ID/Info               : UTF-8 Plain Text
Duration                    : 1 h 35 min
Bit rate                    : 45 b/s
Count of elements           : 454
Stream size                 : 31.4 KiB (0%)
Title                       : Ukr Full [Apple TV+]
Language                    : Ukrainian
Default                     : Yes
Forced                      : Yes

Text #2
ID                          : 4
Format                      : UTF-8
Codec ID                    : S_TEXT/UTF8
Codec ID/Info               : UTF-8 Plain Text
Duration                    : 1 h 31 min
Bit rate                    : 28 b/s
Count of elements           : 443
Stream size                 : 19.5 KiB (0%)
Title                       : Eng Full
Language                    : English
Default                     : No
Forced                      : No

Text #3
ID                          : 5
Format                      : UTF-8
Codec ID                    : S_TEXT/UTF8
Codec ID/Info               : UTF-8 Plain Text
Duration                    : 1 h 33 min
Bit rate                    : 30 b/s
Count of elements           : 563
Stream size                 : 21.2 KiB (0%)
Title                       : Eng SDH
Language                    : English
Default                     : No
Forced                      : No



Джерело: &



 Трекер:    Зареєстрований   

Завантажити / скачати торрент



відео для новачків



 Зареєстрований:   2019-11-07 10:00
 Розмір:   935 MB 
 Оцінка:   9.3/10 (Голосів: 3)
 ЗАЛИШАЙТЕСЬ ЯКОМОГА ДОВШЕ НА РОЗДАЧІ! ЗАВАНТАЖИВ САМ - ДАЙ ЗАВАНТАЖИТИ ІНШИМ!
   
TWISTER 
Новенький


З нами з: 14.06.09
Востаннє: 23.04.21
Повідомлень: 22

2019-11-07 11:20  
Скажіть будь ласка, а з перекладачем якось можна поспілкуватися?
Anonymous 







2019-11-07 11:30  
TWISTER, мабуть можна, якщо знайдете її десь у соц.мережах чи на проф.сайтах перекладачів чи деінде.
TWISTER 
Новенький


З нами з: 14.06.09
Востаннє: 23.04.21
Повідомлень: 22

2019-11-07 11:42  
Та шукав, але на жаль саме перекладача не знайшов, дякую.
ЖSmit Jon 
Новенький


З нами з: 27.09.17
Востаннє: 12.04.21
Повідомлень: 17

2019-11-10 20:54  
Алілуйя ! три доби качав цей фільм ! Шо з ним не так ?
Anonymous 







2019-11-11 09:14  
ЖSmit Jon написано:
три доби качав цей фільм ! Шо з ним не так ?

ЖSmit Jon написано:
Рейтинг: 0.08
Активні торренти:
Роздає: немає
Завантажує: 3

таке буває, коли постійно плюєш в колодязь...

Форкуш 
VIP


З нами з: 03.02.10
Востаннє: 23.04.21
Повідомлень: 2975

2019-11-12 00:56  
Прекрасне кіно. 9/10
Тільки від нього більше суму, ніж радості.

Ваш часовий пояс: GMT + 2 Години

Нова тема   Відповісти