Таємниці Борго Ларічі (Сезон 1) / I segreti di Borgo Larici (Season 1) (2013) 1080p Ukr/Ita | sub Eng/Fre

Нові коментарі

Нова тема   Відповісти
Автор Повідомлення
Anonymous 







2019-11-07 02:08  
Таємниці Борго Ларічі (Сезон 1) / I segreti di Borgo Larici (Season 1) (2013) 1080p Ukr/Ita | sub Eng/Fre

Таємниці Борго Ларічі (Сезон 1) / I segreti di Borgo Larici (Season 1) (2013) 1080p Ukr/Ita | sub Eng/Fre


Жанр: драма
Країна: Італія



Кінокомпанія: Leader Film Company
Режисер: Алессандро Капоне
Актори: Джуліо Берруті, Серена Янсіті, Даніела Вірджіліо, Джесус Еміліано Колторті, Наталі Рапті Гомез, Давіде Якопіні та ін.

Сюжет:
Прем’єра серіалу про багатого спадкоємця дуже відомого текстильного бізнесмена Франческо. Молодий хлопець навідріз відмовляється продовжувати сімейний бізнес на відміну від свого брата Людовіко. Франческо бачить себе за кермом автомобіля, який бере участь в справжніх перегонах. Пізніше в житті Франческо з’являється кохана Аніта, через що і без того натягнуті стосунки з сім’єю погіршуються ще більше. Аніта з простої бідної сім’ї, працює вчителькою в одному з найбідніших районів – така дівчина аж ніяк не може бути парою спадкоємцю настільки великих статків. Між молодими людьми з’являється справжнє кохання – почуття, яке нікому не вдасться знищити.
Згодом в сім’ї Франческо вбивають одного з родичів, і всі підозри падають на брата Аніти. Молоді люди не можуть у це повірити і починають власне розслідування, намагаючись зрозуміти, що ж трапилося. Але чим далі вони починають шукати, тим більше таємниць про сім’ю Франческо дізнаються. Стає зрозуміло, що все багатство текстильного короля нажито нечесним шляхом.


Тривалість: 1 серія: ~ 80 хв. (цілком серій: 7)
Перелік серій
1. Prima puntata
2. Seconda puntata
3. Terza puntata
4. Quarta puntata
5. Quinta puntata
6. Sesta puntata
7. Settima puntata
Якість:
Відео:
кодек:
розмір кадру: 1920 х 1080
бітрейт: 12,8 Мб/с

Аудіо # 1:
мова: українська
переклад: багатоголосий закадровий
кодек: 2.0
бітрейт: 192 кб/с

Аудіо # 2:
мова: італійська
переклад: оригінал
кодек: 2.0
бітрейт: 224 кб/с

Джерело озвучення:


Субтитри:
мова: англійська
тип: програмні (м'які)
формат: *.srt

Субтитри:
мова: французька
тип: програмні (м'які)
формат: *.srt
Info
General
Unique ID : 248491759237788419507263666589087661485 (0xBAF1C5A21DD54C578628950DA4A17DAD)
Complete name : I segreti di Borgo Larici S01E01 (2013) 1080p [Ukr_Ita] [Hurtom].
Format :
Format version : Version 4
File size : 7.57 GiB
Duration : 1 h 21 min
Overall bit rate mode : Variable
Overall bit rate : 13.2 Mb/s
Movie name : Таємниці Борго Ларічі (Сезон 1, серія 1) (2013)
Encoded date : UTC 2019-11-06 13:38:07
Writing application : v30.1.0 ('Forever And More') 64-bit
Writing library : libebml v1.3.6 + v1.4.9
Cover : Yes
Attachments : cover.jpg

Video
ID : 1
Format : AVC
Format/Info : Advanced Video Codec
Format profile : [email protected]
Format settings : CABAC / 4 Ref Frames
Format settings, CABAC : Yes
Format settings, ReFrames : 4 frames
Codec ID : V_MPEG4/ISO/AVC
Duration : 1 h 21 min
Bit rate mode : Variable
Bit rate : 12.8 Mb/s
Maximum bit rate : 15.0 Mb/s
Width : 1 920 pixels
Height : 1 080 pixels
Display aspect ratio : 16:9
Frame rate mode : Constant
Frame rate : 29.970 (30000/1001) FPS
Color space : YUV
Chroma subsampling : 4:2:0
Bit depth : 8 bits
Scan type : Progressive
Bits/(Pixel*Frame) : 0.206
Stream size : 7.33 GiB (97%)
Language : Italian
Default : Yes
Forced : No
Color range : Limited
Color primaries : BT.709
Transfer characteristics : BT.709
Matrix coefficients : BT.709

Audio #1
ID : 2
Format : AC-3
Format/Info : Audio Coding 3
Commercial name : Dolby Digital
Codec ID : A_AC3
Duration : 1 h 21 min
Bit rate mode : Constant
Bit rate : 192 kb/s
Channel(s) : 2 channels
Channel layout : L R
Sampling rate : 48.0 kHz
Frame rate : 31.250 FPS (1536 SPF)
Bit depth : 16 bits
Compression mode : Lossy
Stream size : 112 MiB (1%)
Language : Ukrainian
Service kind : Complete Main
Default : Yes
Forced : Yes

Audio #2
ID : 3
Format : E-AC-3
Format/Info : Enhanced AC-3
Commercial name : Dolby Digital Plus
Codec ID : A_EAC3
Duration : 1 h 21 min
Bit rate mode : Constant
Bit rate : 224 kb/s
Channel(s) : 2 channels
Channel layout : L R
Sampling rate : 48.0 kHz
Frame rate : 31.250 FPS (1536 SPF)
Compression mode : Lossy
Stream size : 131 MiB (2%)
Language : Italian
Service kind : Complete Main
Default : No
Forced : No

Text #1
ID : 4
Format : UTF-8
Codec ID : S_TEXT/UTF8
Codec ID/Info : UTF-8 Plain Text
Duration : 1 h 16 min
Bit rate : 43 b/s
Count of elements : 900
Stream size : 24.3 KiB (0%)
Language : English
Default : No
Forced : No

Text #2
ID : 5
Format : UTF-8
Codec ID : S_TEXT/UTF8
Codec ID/Info : UTF-8 Plain Text
Duration : 1 h 16 min
Bit rate : 48 b/s
Count of elements : 903
Stream size : 27.6 KiB (0%)
Language : French
Default : No
Forced : No
Скріншоти







Джерело:
Дякую пану krigg070 за допомогу з 6-ою серією


Бронзовий реліз (на рейтинг впливає 75% завантаженого)
 Трекер:    Зареєстрований   

Завантажити / скачати серіал українською



відео для новачків



 Зареєстрований:   2019-11-07 13:48
 Розмір:   54.8 GB 
 Оцінка серіалу:   9/10 (Голосів: 1)
   
Anonymous 







2019-11-07 02:21  
деякі пояснення
Цитата:
(2013)

хоча на імдб і на інших ресурсах пишуть 2014 рік, але це помилка
серіал 2013 року (підтвердження тут https://www.mediasetdistribution.com/format/the-secrets-of-borgo-larici-100/ і останній скріншот в темі), просто показ першої серії на італійському телебаченні відбувся 22 січня 2014 року ( https://www.mediasetplay.mediaset.it/video/isegretidiborgolarici/prima-puntata_F305399801000101 )
Цитата:
(цілком серій: 7)

існує 3 версії серіалу - 14X40', 7X80' і 6X100'
контент однаковий, просто поділено серії по-різному
Цитата:
примітка: відсутнє озвучення в шостій серії з 01:04:09 по 01:04:33

канал переклав все, просто відбувся збій трансляції/запису
цей серіал потім повторювали і на інших каналах, може хто записав, то буду вдячний (12 серія 14-ти серійного варіанту)

krigg070 
Відео Гуртом - фільмокрай
Відео Гуртом - фільмокрай


З нами з: 29.10.14
Востаннє: 29.11.20
Повідомлень: 1818

2019-11-07 07:58  
Anonymous написано:
цей серіал потім повторювали і на інших каналах, може хто записав, то буду вдячний (12 серія 14-ти серійного варіанту)

https://fex.net/s/nynxx4y

Anonymous 







2019-11-07 13:49  
торент перезалито, прохання перезавантажити
Цитата:
примітка: відсутнє озвучення в шостій серії з 01:04:09 по 01:04:33

дякуючи пану krigg070 тепер озвучення повне

cwitka 
Свій


З нами з: 03.03.13
Востаннє: 28.11.20
Повідомлень: 86

2019-11-08 23:22  
Серіал мені дуже сподобався (дивилася давно). А чи плануєте викласти в меншому розмірі?
Anonymous 







2019-11-08 23:46  
cwitka написано:
А чи плануєте викласти в меншому розмірі?

я - ні, може хтось інший зробить
можете ще залишити замовлення тут https://toloka.to/t6789

dtrnjh 
Новенький


З нами з: 04.06.16
Востаннє: 16.11.20
Повідомлень: 4

2019-12-16 00:46  
Ще буде продовження то якось закінчився інтригуюче, на весіллі, не можуть одружитися, а так гарно все йшло. Лінія Етторі та Еви теж не закінчена.
Ваш часовий пояс: GMT + 2 Години

Нова тема   Відповісти