007: Казино Рояль (Агент Джеймс Бонд James Bond) [Повна версія] / Casino Royale [UnCut] (2006) Remux 1080p [50th Anniversary Edition] 4хUkr/Eng | Sub Eng

Нові коментарі

Нова тема   Відповісти
Автор Повідомлення
MakRA 
VIP


З нами з: 11.11.18
Востаннє: 31.05.20
Повідомлень: 1081

2019-11-07 02:25  
007: Казино Рояль [Повна версія] / Casino Royale [UnCut] (2006) Remux 1080p [50th Anniversary Edition] 4хUkr/Eng | Sub Eng

007: Казино Рояль (Агент Джеймс Бонд James Bond) [Повна версія] / Casino Royale [UnCut] (2006) Remux 1080p [50th Anniversary Edition] 4хUkr/Eng | Sub Eng

Український постер:

Альтернативні постери:





Жанр: екшн, пригодницький, трилер
Країна: США , Великобританія , Німеччина , Чехія , Багамські острови



Кінокомпанія: Columbia Pictures, Eon Productions, Casino Royale Productions
Режисер: Мартін Кембелл [Martin Campbell]
Актори: Деніел Крейґ [Daniel Craig], Єва Ґрін [Eva Green], Медс Мікельсен [Mads Mikkelsen], Джуді Денч [Judi Dench], Джефрі Райт [Jeffrey Wright], Джанкарло Джаніні [Giancarlo Giannini], Катеріна Муріно [Caterina Murino], Саймон Абкаріан [Simon Abkarian], Джаспер Крістенсен [Jesper Christensen], Малкольм Сінклер [Malcolm Sinclair]

Сюжет:
Двадцять перший фільм із серії фільмів про англійського таємного агента Джеймса Бонда, героя романів Яна Флемінга. Роль Бонда вперше виконує Деніел Крейг.
«Казино Рояль» — екранізація однойменного роману Яна Флемінга, надрукованого у 1953 р., — найпершої книги про Бонда.
На цей раз знаменитому агенту належить битися з фінансовим генієм злочинного світу Ле Шиффер і його помічниками. Звичайно, не обійдеться без ефектних трюків, багатого шпигунського арсеналу, спецефектів, погонь і бійок...


Тривалість: 02:24:33
Якість: Remux 1080p [50th Anniversary Edition]
Відео:
кодек:
розмір кадру: 1920 х 1080
бітрейт: 23,8 Mб/с

Аудіо # 1:
мова: українська
переклад: професійний дубльований | Невафільм Україна
кодек: 5.1
бітрейт: 448 кб/с

Аудіо # 2:
мова: українська
переклад: професійний дубльований | Студія «Пілот» на замовлення ICTV
кодек: 5.1
бітрейт: 384 кб/с

Аудіо # 3:
мова: українська
переклад: професійний дубльований | Студія «Пілот» на замовлення ICTV
кодек: 2.0
бітрейт: 192 кб/с

Аудіо # 4:
мова: українська
переклад: багатоголосий закадровий
кодек: 2.0
бітрейт: 192 кб/с

Аудіо # 5:
мова: українська
переклад: багатоголосий закадровий | Студія «Так Треба Продакшн» на замовлення К1
кодек: 5.1
бітрейт: 384 кб/с

Аудіо # 6:
мова: англійська
переклад: оригінал
кодек: -HD MA 5.1
бітрейт: 3887 кб/с

Аудіо # 7:
мова: англійська
переклад: оригінал
кодек: 5.1
бітрейт: 640 кб/с

Субтитри # 1: (Full)
мова: англійська
тип: програмні (м'які)
формат: *.srt

Субтитри # 2: (Full)
мова: англійська
тип: пререндерні
формат: *.pgs

Збережено оригінальні розділи, як на Blu-ray.
Info
General
Unique ID : 155708514125410820681360310212205605982 (0x75245E76751B15BDC8184EEDA2F9F45E)
Complete name : I:\James Bond Movie Collection\James Bond Casino Royale [UnCut] (2006) Remux 1080p [50th Anniversary Edition] 4хUkrEng Sub Eng [Hurtom].
Format :
Format version : Version 4
File size : 30.2 GiB
Duration : 2 h 24 min
Overall bit rate mode : Variable
Overall bit rate : 30.0 Mb/s
Movie name : Джеймс Бонд. Агент 007: Казино Рояль [Повна версія] / James Bond: Casino Royale [UnCut] (2006) Remux 1080p [50th Anniversary Edition] 4хUkr/Eng | Sub Eng [Hurtom]
Encoded date : UTC 2019-11-06 21:31:00
Writing application : v25.0.0 ('Prog Noir') 64-bit
Writing library : libebml v1.3.6 + v1.4.9
Cover : Yes
Attachments : cover.jpg

Video
ID : 1
Format : AVC
Format/Info : Advanced Video Codec
Format profile : [email protected]
Format settings : CABAC / 4 Ref Frames
Format settings, CABAC : Yes
Format settings, Reference fra : 4 frames
Codec ID : V_MPEG4/ISO/AVC
Duration : 2 h 24 min
Bit rate mode : Variable
Bit rate : 23.8 Mb/s
Maximum bit rate : 35.0 Mb/s
Width : 1 920 pixels
Height : 1 080 pixels
Display aspect ratio : 16:9
Frame rate mode : Constant
Frame rate : 23.976 (24000/1001) FPS
Color space : YUV
Chroma subsampling : 4:2:0
Bit depth : 8 bits
Scan type : Progressive
Bits/(Pixel*Frame) : 0.479
Stream size : 24.0 GiB (80%)
Title : James Bond: Casino Royale [UnCut] (2006) Remux 1080p [50th Anniversary Edition] 4хUkr/Eng | Sub Eng [Hurtom]
Language : Ukrainian
Default : Yes
Forced : Yes

Audio #1
ID : 2
Format : AC-3
Format/Info : Audio Coding 3
Commercial name : Dolby Digital
Codec ID : A_AC3
Duration : 2 h 24 min
Bit rate mode : Constant
Bit rate : 448 kb/s
Channel(s) : 6 channels
Channel layout : L R C LFE Ls Rs
Sampling rate : 48.0 kHz
Frame rate : 31.250 FPS (1536 SPF)
Bit depth : 16 bits
Compression mode : Lossy
Stream size : 463 MiB (1%)
Title : DUB [DVD R5] 5.1 | Невафільм Україна
Language : Ukrainian
Service kind : Complete Main
Default : Yes
Forced : Yes

Audio #2
ID : 3
Format : AC-3
Format/Info : Audio Coding 3
Commercial name : Dolby Digital
Codec ID : A_AC3
Duration : 2 h 24 min
Bit rate mode : Constant
Bit rate : 384 kb/s
Channel(s) : 6 channels
Channel layout : L R C LFE Ls Rs
Sampling rate : 48.0 kHz
Frame rate : 31.250 FPS (1536 SPF)
Bit depth : 16 bits
Compression mode : Lossy
Stream size : 397 MiB (1%)
Title : DUB [ICTV] 5.1 | Студія «Пілот» на замовлення ICTV
Language : Ukrainian
Service kind : Complete Main
Default : No
Forced : No

Audio #3
ID : 4
Format : AC-3
Format/Info : Audio Coding 3
Commercial name : Dolby Digital
Codec ID : A_AC3
Duration : 2 h 24 min
Bit rate mode : Constant
Bit rate : 192 kb/s
Channel(s) : 2 channels
Channel layout : L R
Sampling rate : 48.0 kHz
Frame rate : 31.250 FPS (1536 SPF)
Bit depth : 16 bits
Compression mode : Lossy
Delay relative to video : 24 ms
Stream size : 199 MiB (1%)
Title : DUB [ICTV] 2.0 | Студія «Пілот» на замовлення ICTV
Language : Ukrainian
Service kind : Complete Main
Default : No
Forced : No

Audio #4
ID : 5
Format : AC-3
Format/Info : Audio Coding 3
Commercial name : Dolby Digital
Codec ID : A_AC3
Duration : 2 h 24 min
Bit rate mode : Constant
Bit rate : 192 kb/s
Channel(s) : 2 channels
Channel layout : L R
Sampling rate : 48.0 kHz
Frame rate : 31.250 FPS (1536 SPF)
Bit depth : 16 bits
Compression mode : Lossy
Stream size : 199 MiB (1%)
Title : MVO [1+1] 2.0
Language : Ukrainian
Service kind : Complete Main
Default : No
Forced : No

Audio #5
ID : 6
Format : AC-3
Format/Info : Audio Coding 3
Commercial name : Dolby Digital
Codec ID : A_AC3
Duration : 2 h 24 min
Bit rate mode : Constant
Bit rate : 384 kb/s
Channel(s) : 6 channels
Channel layout : L R C LFE Ls Rs
Sampling rate : 48.0 kHz
Frame rate : 31.250 FPS (1536 SPF)
Bit depth : 16 bits
Compression mode : Lossy
Stream size : 397 MiB (1%)
Title : MVO [K1] 5.1 | Студія «Так Треба Продакшн» на замовлення К1
Language : Ukrainian
Service kind : Complete Main
Default : No
Forced : No

Audio #6
ID : 7
Format : XLL
Format/Info : Digital Theater Systems
Commercial name : -HD Master Audio
Codec ID : A_DTS
Duration : 2 h 24 min
Bit rate mode : Variable
Bit rate : 3 887 kb/s
Channel(s) : 6 channels
Channel layout : C L R Ls Rs LFE
Sampling rate : 48.0 kHz
Frame rate : 93.750 FPS (512 SPF)
Bit depth : 24 bits
Compression mode : Lossless
Stream size : 3.92 GiB (13%)
Title : Original -HD MA 5.1
Language : English
Default : No
Forced : No

Audio #7
ID : 8
Format : AC-3
Format/Info : Audio Coding 3
Commercial name : Dolby Digital
Codec ID : A_AC3
Duration : 2 h 24 min
Bit rate mode : Constant
Bit rate : 640 kb/s
Channel(s) : 6 channels
Channel layout : L R C LFE Ls Rs
Sampling rate : 48.0 kHz
Frame rate : 31.250 FPS (1536 SPF)
Bit depth : 16 bits
Compression mode : Lossy
Stream size : 662 MiB (2%)
Title : Original 5.1
Language : English
Service kind : Complete Main
Default : No
Forced : No

Text #1
ID : 9
Format : UTF-8
Codec ID : S_TEXT/UTF8
Codec ID/Info : UTF-8 Plain Text
Duration : 2 h 18 min
Bit rate : 33 b/s
Count of elements : 1042
Stream size : 33.7 KiB (0%)
Title : Eng (Full) SRT
Language : English
Default : No
Forced : No

Text #2
ID : 10
Format : PGS
Muxing mode : zlib
Codec ID : S_HDMV/PGS
Codec ID/Info : Picture based subtitle format used on BDs/HD-DVDs
Duration : 2 h 23 min
Bit rate : 20.1 kb/s
Count of elements : 2084
Stream size : 20.6 MiB (0%)
Title : Eng (Full) PGS
Language : English
Default : No
Forced : No

Menu
00:00:00.000 : en:Double O Status
00:09:37.285 : en:Freedom Banking
00:19:30.502 : en:Fancy Footwork
00:25:35.325 : en:You Can Run
00:35:18.241 : en:Embassy Heat
00:39:58.854 : en:Island Retreat
00:45:21.760 : en:Risky Wager
00:57:50.383 : en:After Hours Questioning
01:07:21.620 : en:Miami Showcase
01:17:11.376 : en:Unveiling Operation
01:30:05.400 : en:Manipulative Maneuver
01:38:40.497 : en:Game Of Luck
01:43:28.952 : en:Relationship Briefing
01:54:02.377 : en:Sizing Up The Competition
02:05:44.703 : en:Calling The Shots
02:13:19.032 : en:Cutting Their Losses
02:24:32.872 : en:Raising The Stakes
Скріншоти
Джерело: &
Над доріжками працювали: п. Romario_O, п. SgBILko, п. slavik_v_z, п. Віктор, п. zed
Особиста оцінка: 10 - без зайвих вагань рекомендую всім!




Золотий реліз (завантажене не впливає на рейтинг)
 Трекер:    Зареєстрований   

Завантажити / скачати фільм українською



відео для новачків



 Зареєстрований:   2019-11-07 02:25
 Розмір:   30.24 GB 
 Оцінка фільму:   9.2/10 (Голосів: 13)
   
LastExile 
Частий відвідувач


З нами з: 25.09.10
Востаннє: 30.05.20
Повідомлень: 26

2019-11-07 23:28  
Підкажіть у чому різниця?
MakRA 
VIP


З нами з: 11.11.18
Востаннє: 31.05.20
Повідомлень: 1081

2019-11-07 23:39  
LastExile написано:
Підкажіть у чому різниця?

50th Anniversary Edition - краща якість відео
також дана версія найменш цензурована https://www.movie-censorship.com/news.php?ID=4052

Ваш часовий пояс: GMT + 2 Години

Нова тема   Відповісти