Тим важче буде падіння / Harder They Fall (1956) Remux 1080p Ukr/Eng | Sub Eng

Нові коментарі

Нова тема   Відповісти
Останній раз роздавалося MakRA (2020-09-21)
Автор Повідомлення
MakRA 
VIP


З нами з: 11.11.18
Востаннє: 20.09.20
Повідомлень: 1119

2019-11-07 01:32  
Тим важче буде падіння / Harder They Fall (1956) Remux 1080p Ukr/Eng | Sub Eng


Альтернативні постери:





Жанр: драма, нуар, спорт, трилер
Країна: США



Кінокомпанія: Columbia Pictures Corporation
Режисер: Марк Робсон [Mark Robson]
Актори: Гамфрі Боґарт [Humphrey Bogart], Род Стайґер [Rod Steiger], Жан Стерлінґ [Jan Sterling], Майк Лейн [Mike Lane], Макс Баєр [Max Baer], Джерсі Джо Волкотт [Jersey Joe Walcott], Едвард Ендрюс [Edward Andrews], Геролд Дж. Стоун [Harold J. Stone], Карлос Монталбан [Carlos Montalbán], Негемія Персофф [Nehemiah Persoff], Феліс Орланді [Felice Orlandi], Гербі Фей [Herbie Faye], Расті Лейн [Rusty Lane], Джек Албертсон [Jack Albertson]

Сюжет:
Проробивши сімнадцять років в якості спортивного журналіста Едді Вілліс так і не досяг успіху. Борги і відсутність грошей в кишені стали справжньою проблемою. Але вирішення грошової халепи приходить само собою, коли менеджер молодого нікому невідомого боксера Нік Бенко приходить до Едді і просить пропіарити одного з своїх клієнтів. Великі гроші, які крутяться в цьому спорті, попадають до самого Едді, який тепер в свої статях піарить не дуже хорошого боксера в важкій вазі із Аргентини Торо Морено. Але нікчемність Торо з кожним разом все важче приховувати, і Едді починає перейматися тим, що сам боксер опинився в ще більш безвихідному положенні...


Тривалість: 01:48:47
Якість: Remux 1080p [Fra Transfer]
Відео:
кодек:
розмір кадру: 1920 х 1080
бітрейт: 26,9 Mб/с

Аудіо # 1:
мова: українська
переклад: двоголосий закадровий
кодек: 2.0
бітрейт: 192 кб/с
Про озвучення:

Фільм озвучено Студією «1+1»
Текст читали актори: Владислав Пупков та Наталя Поліщук.
Аудіо # 2:
мова: англійська
переклад: оригінал
кодек: -HD MA 2.0
бітрейт: 2095 кб/с

Аудіо # 3:
мова: англійська
переклад: оригінал
кодек: 2.0
бітрейт: 192 кб/с

Субтитри # 1: (Full)
мова: англійська
тип: програмні (м'які)
формат: *.srt

Субтитри # 2: (Full)
мова: англійська
тип: пререндерні
формат: *.pgs

Збережено оригінальні розділи, як на Blu-ray.
Info
General
Unique ID : 177036256753631260408319044926625573122 (0x852FF15C275BC9E4C9D1278ABFC86902)
Complete name : I:\+Фільмографії- Гамфрі Боґарт [Humphrey DeForest Bogart]\Harder They Fall (1956) Remux 1080p UkrEng Sub Eng [Hurtom].
Format :
Format version : Version 4
File size : 22.4 GiB
Duration : 1 h 48 min
Overall bit rate mode : Variable
Overall bit rate : 29.4 Mb/s
Movie name : Тим важче буде падіння / Harder They Fall (1956) Remux 1080p Ukr/Eng | Sub Eng [Hurtom]
Encoded date : UTC 2019-11-05 22:51:37
Writing application : v25.0.0 ('Prog Noir') 64-bit
Writing library : libebml v1.3.6 + v1.4.9
Cover : Yes
Attachments : cover.png

Video
ID : 1
Format : AVC
Format/Info : Advanced Video Codec
Format profile : [email protected]
Format settings : CABAC / 4 Ref Frames
Format settings, CABAC : Yes
Format settings, Reference fra : 4 frames
Codec ID : V_MPEG4/ISO/AVC
Duration : 1 h 48 min
Bit rate mode : Variable
Bit rate : 26.9 Mb/s
Maximum bit rate : 32.0 Mb/s
Width : 1 920 pixels
Height : 1 080 pixels
Display aspect ratio : 16:9
Frame rate mode : Constant
Frame rate : 23.976 (24000/1001) FPS
Standard : NTSC
Color space : YUV
Chroma subsampling : 4:2:0
Bit depth : 8 bits
Scan type : Progressive
Bits/(Pixel*Frame) : 0.542
Stream size : 20.5 GiB (91%)
Title : Harder They Fall (1956) Remux 1080p Ukr/Eng | Sub Eng [Hurtom]
Language : Ukrainian
Default : Yes
Forced : Yes
Color range : Limited
Color primaries : BT.709
Transfer characteristics : BT.709
Matrix coefficients : BT.709

Audio #1
ID : 2
Format : AC-3
Format/Info : Audio Coding 3
Commercial name : Dolby Digital
Codec ID : A_AC3
Duration : 1 h 48 min
Bit rate mode : Constant
Bit rate : 192 kb/s
Channel(s) : 2 channels
Channel layout : L R
Sampling rate : 48.0 kHz
Frame rate : 31.250 FPS (1536 SPF)
Bit depth : 16 bits
Compression mode : Lossy
Stream size : 149 MiB (1%)
Title : DVO [1+1] 2.0
Language : Ukrainian
Service kind : Complete Main
Default : Yes
Forced : Yes

Audio #2
ID : 3
Format : XLL
Format/Info : Digital Theater Systems
Commercial name : -HD Master Audio
Codec ID : A_DTS
Duration : 1 h 48 min
Bit rate mode : Variable
Bit rate : 2 095 kb/s
Channel(s) : 2 channels
Channel layout : L R
Sampling rate : 48.0 kHz
Frame rate : 93.750 FPS (512 SPF)
Bit depth : 24 bits
Compression mode : Lossless
Stream size : 1.59 GiB (7%)
Title : Original -HD MA 2.0
Language : English
Default : No
Forced : No

Audio #3
ID : 4
Format : AC-3
Format/Info : Audio Coding 3
Commercial name : Dolby Digital
Codec ID : A_AC3
Duration : 1 h 48 min
Bit rate mode : Constant
Bit rate : 192 kb/s
Channel(s) : 2 channels
Channel layout : L R
Sampling rate : 48.0 kHz
Frame rate : 31.250 FPS (1536 SPF)
Bit depth : 16 bits
Compression mode : Lossy
Stream size : 149 MiB (1%)
Title : Original 2.0
Language : English
Service kind : Complete Main
Default : No
Forced : No

Text #1
ID : 5
Format : UTF-8
Codec ID : S_TEXT/UTF8
Codec ID/Info : UTF-8 Plain Text
Duration : 1 h 45 min
Bit rate : 68 b/s
Count of elements : 1184
Stream size : 52.6 KiB (0%)
Title : Eng (Full) SRT
Language : English
Default : No
Forced : No

Text #2
ID : 6
Format : PGS
Muxing mode : zlib
Codec ID : S_HDMV/PGS
Codec ID/Info : Picture based subtitle format used on BDs/HD-DVDs
Duration : 1 h 45 min
Bit rate : 62.3 kb/s
Count of elements : 2368
Stream size : 46.9 MiB (0%)
Title : Eng (Full) PGS
Language : English
Default : No
Forced : No

Menu
00:00:00.000 : en:Start
00:03:58.000 : en:Eddie Willis, ex-sportswriter
00:06:57.000 : en:Powder puff punch & a glass jaw
00:09:17.000 : en:Deal
00:14:40.000 : en:Freak attraction
00:15:10.000 : en:The Fourth Estate
00:17:27.000 : en:Sailor Rigazzo vs. Toro
00:21:52.000 : en:In the soup
00:25:49.000 : en:Settling the account
00:32:15.000 : en:Managers meeting
00:35:18.000 : en:The fix is in
00:37:38.000 : en:The right thing
00:43:02.000 : en:Chief Firebird's pride
00:44:23.000 : en:The chicken-wire routine
00:48:02.000 : en:Punched out
00:51:12.000 : en:Visa revoked
00:54:09.000 : en:"Help me, Eddie!"
00:59:57.000 : en:Gus Dundee vs. Toro
01:06:09.000 : en:At the hospital
01:09:43.000 : en:Money means everything
01:15:05.000 : en:Buddy's beef
01:19:42.000 : en:A letter from Mother
01:20:36.000 : en:A credit to his profession
01:23:52.000 : en:The truth
01:29:16.000 : en:The Main Event
01:36:23.000 : en:$49.07
01:42:17.000 : en:Transferal of shares
01:44:32.000 : en:Payback
Скріншоти
Джерело: &
Подяка п. Tanat13 за запис з ТБ та п. ninenine за синхронізацію
Особиста оцінка: 10 - без зайвих вагань рекомендую всім!


Золотий реліз (завантажене не впливає на рейтинг)
 Трекер:    Зареєстрований   

Завантажити / скачати фільм українською



відео для новачків



 Зареєстрований:   2019-11-07 01:32
 Розмір:   22.37 GB 
 Оцінка фільму:   10/10 (Голосів: 6)
   
Інші релізи
+380954897458 
VIP


З нами з: 02.06.17
Востаннє: 18.09.20
Повідомлень: 942

2019-11-08 13:31  
Як чудово що такі фільми є на Толоці і як хріново, що нема куди їх вантажити. Катастрофа просто! Останній фільм великого Богі, так? Дуже мало бачив з ним фільмів, на жаль.
MakRA 
VIP


З нами з: 11.11.18
Востаннє: 20.09.20
Повідомлень: 1119

2019-11-08 13:36  
+380954897458 написано:
Як чудово що такі фільми є на Толоці і як хріново, що нема куди їх вантажити.

А ще й не всі озвучені українською Sad (1), це останній. Всього, здається шість чи сім з перекладом.

+380954897458 
VIP


З нами з: 02.06.17
Востаннє: 18.09.20
Повідомлень: 942

2019-11-11 14:39  
Подивився нарешті. Потужний фільм, гострий, захоплюючий, в якому геть відсутня архаїчність діалогів, притаманна більшості старих кінострічок. За цим же сценарієм можна хоч зараз знімати кіно, і ніхто б не сказав, що він був написаний більше ніж 60 років тому. Король нуару Гамфрі Богарт виглядає бадьоро, ніколи б не подумав, що жити йому залишилося недовго. Був королем, королем і пішов, залишивши по собі незабутню спадщину, подібних йому вже не було, з ним помер цілий жанр.
Цікаво ще було відмітити, що боксерів у фільмі грали реальні спортсмени - колишні чемпіони світу у надважкій вазі Джерсі Джо Уолкотт та Макс Баер. Про історичний бій останнього з Джеймсом Бреддоком є чудовий фільм, який у нас неправильно називають "Нокдаун".

Ваш часовий пояс: GMT + 2 Години

Нова тема   Відповісти