2001: Космічна Одіссея / 2001: A Space Odyssey [Remastered] (1968) 1080p H.265 Ukr/Eng | Sub Ukr/Eng

Нові коментарі

Нова тема   Відповісти
Автор Повідомлення
Anonymous 







2019-11-07 01:23  
2001: Космічна Одіссея / 2001: A Space Odyssey [Remastered] (1968) 1080p H.265 Ukr/Eng | Sub Ukr/Eng

2001: Космічна Одіссея / 2001: A Space Odyssey [Remastered] (1968) 1080p H.265 Ukr/Eng | Sub Ukr/Eng


Жанр: Наукова фантастика
Країна: США, Великобританія
Кінокомпанія: Metro-Goldwyn-Mayer, Stanley Kubrick Productions
Режисер: Стенлі Кубрик
Актори: Кір Дуллі, Ґарі Локвуд, Вільям Сільвестер, Дуглас Рейн, Даніель Річтер, Леонард Россітер, Маргарет Тайзек, Роберт Бітті, Шон Салліван, Френк Міллер, Едвард Бішоп, Алан Ґіффорд, Енн Джилліс

Сюжет:
"2001: Космічна Одіссея" - спроба заглянути в майбутнє, путівник для пошуків призначення людства. Це сліпуча драма про поєдинок людини і машини. Це приголомшливий сплав руху і музики. Протягом більш ніж двох годин перед глядачем розвертається неквапливий сюжет фільму, побудований навколо позаземних артефактів, пізніше названих Монолітами, які мають правильну форму паралелепіпеда, абсолютно чорний колір і не піддаються впливу ніяких інструментів і випромінювань. Космічна Одіссея 2001 - одна з найкращих робіт режисера Стенлі Кубрика, яка буде надихати, дивувати і підкорювати ще не одне покоління глядачів. Перед початком подорожі в майбутнє, Кубрик відвідує наших доісторичних предків, потім перестрибує через тисячоліття в колонізований космос, і, під кінець, закидає астронавта Боумена в незвіданий район космосу, може бути навіть - у вічність. "Відкрий двері модуля, ХЕЛ". Грандіозна таємнича подорож починається...

Тривалість: 02:28:51
Якість:

Відео:
кодек: H.265 (HEVC)
розмір кадру: 1920 x 872
бітрейт: 4 794 кб/с
бітова глибина: 10 біт

Увага! Перед завантаженням переконайтесь, що ваш пристрій відтворення (та/або ПЗ) підтримує H.265 (HEVC)

Аудіо # 1:
мова: українська
переклад: двоголосий закадровий
кодек: AC-3 2.0
бітрейт: 192 кб/с

Аудіо # 2:
мова: англійська
переклад: оригінал
кодек: AC-3 5.1
бітрейт: 448 кб/с

Субтитри # 1: (Full)
мова: українська
тип: програмні (м'які)
формат: *.srt

Субтитри # 2: (Full)
мова: англійська
тип: програмні (м'які)
формат: *.srt


Info
Код:
General
Unique ID                                : 145648242265163730989349767387234411651 (0x6D92D4C3CB59E8F8F863A50A92B3A483)
Complete name                            : 2001. A Space Odyssey [Remastered] (1968) 1080p H.265 [UKR_ENG] [Hurtom].
Format                                   :
Format version                           : Version 4
File size                                : 5.65 GiB
Duration                                 : 2 h 28 min
Overall bit rate                         : 5 436 kb/s
Movie name                               : 2001: Космічна Одіссея / 2001: A Space Odyssey (1968)
Encoded date                             : UTC 2019-11-06 21:43:02
Writing application                      : v20.0.0 ('I Am The Sun') 64-bit
Writing library                          : libebml v1.3.5 + v1.4.8
Cover                                    : Yes
Attachments                              : Cover.jpg

Video
ID                                       : 1
Format                                   : HEVC
Format/Info                              : High Efficiency Video Coding
Format profile                           : Main [email protected]@High
Codec ID                                 : V_MPEGH/ISO/HEVC
Duration                                 : 2 h 28 min
Bit rate                                 : 4 794 kb/s
Width                                    : 1 920 pixels
Height                                   : 872 pixels
Display aspect ratio                     : 2.2:1
Frame rate mode                          : Constant
Frame rate                               : 23.976 (24000/1001) FPS
Color space                              : YUV
Chroma subsampling                       : 4:2:0
Bit depth                                : 10 bits
Bits/(Pixel*Frame)                       : 0.119
Stream size                              : 4.98 GiB (88%)
Title                                    : 2001: Космічна Одіссея / 2001: A Space Odyssey (1968)
Writing library                          : x265 2.8+74-fd517ae68f93:[Windows][GCC 7.3.0][64 bit] 10bit
Encoding settings                        : cpuid=1049583 / frame-threads=5 / numa-pools=4 / wpp / no-pmode / no-pme / no-psnr / no-ssim / log-level=3 / input-csp=1 / input-res=1920x872 / interlace=0 / total-frames=0 / level-idc=41 / high-tier=1 / uhd-bd=0 / ref=5 / allow-non-conformance / no-repeat-headers / annexb / no-aud / no-hrd / info / hash=0 / no-temporal-layers / open-gop / min-keyint=24 / keyint=240 / gop-lookahead=0 / bframes=8 / b-adapt=2 / b-pyramid / bframe-bias=0 / rc-lookahead=40 / lookahead-slices=5 / scenecut=40 / radl=0 / no-intra-refresh / ctu=64 / min-cu-size=8 / no-rect / no-amp / max-tu-size=32 / tu-inter-depth=1 / tu-intra-depth=1 / limit-tu=0 / rdoq-level=0 / dynamic-rd=0.00 / no-ssim-rd / signhide / no-tskip / nr-intra=0 / nr-inter=0 / no-constrained-intra / strong-intra-smoothing / max-merge=2 / limit-refs=3 / no-limit-modes / me=3 / subme=7 / merange=57 / temporal-mvp / weightp / no-weightb / no-analyze-src-pics / deblock=-3:-3 / no-sao / no-sao-non-deblock / rd=3 / no-early-skip / rskip / no-fast-intra / no-tskip-fast / no-cu-lossless / no-b-intra / no-splitrd-skip / rdpenalty=0 / psy-rd=2.00 / psy-rdoq=0.00 / no-rd-refine / no-lossless / cbqpoffs=0 / crqpoffs=0 / rc=crf / crf=17.0 / qcomp=0.60 / qpstep=4 / stats-write=0 / stats-read=0 / vbv-maxrate=50000 / vbv-bufsize=50000 / vbv-init=0.9 / crf-max=0.0 / crf-min=0.0 / ipratio=1.40 / pbratio=1.30 / aq-mode=1 / aq-strength=1.00 / cutree / zone-count=0 / no-strict-cbr / qg-size=32 / no-rc-grain / qpmax=69 / qpmin=0 / no-const-vbv / sar=1 / overscan=0 / videoformat=5 / range=0 / colorprim=1 / transfer=1 / colormatrix=1 / chromaloc=0 / display-window=0 / max-cll=0,0 / min-luma=0 / max-luma=1023 / log2-max-poc-lsb=8 / vui-timing-info / vui-hrd-info / slices=1 / no-opt-qp-pps / no-opt-ref-list-length-pps / no-multi-pass-opt-rps / scenecut-bias=0.05 / no-opt-cu-delta-qp / no-aq-motion / no-hdr / no-hdr-opt / no-dhdr10-opt / no-idr-recovery-sei / analysis-reuse-level=5 / scale-factor=0 / refine-intra=0 / refine-inter=0 / refine-mv=0 / no-limit-sao / ctu-info=0 / no-lowpass-dct / refine-mv-type=0 / copy-pic=1 / max-ausize-factor=1.0 / no-dynamic-refine / no-single-sei
Language                                 : English
Default                                  : Yes
Forced                                   : No
Color range                              : Limited
Color primaries                          : BT.709
Transfer characteristics                 : BT.709
Matrix coefficients                      : BT.709

Audio #1
ID                                       : 2
Format                                   : AC-3
Format/Info                              : Audio Coding 3
Commercial name                          : Dolby Digital
Codec ID                                 : A_AC3
Duration                                 : 2 h 28 min
Bit rate mode                            : Constant
Bit rate                                 : 192 kb/s
Channel(s)                               : 2 channels
Channel layout                           : L R
Sampling rate                            : 48.0 kHz
Frame rate                               : 31.250 FPS (1536 SPF)
Bit depth                                : 16 bits
Compression mode                         : Lossy
Stream size                              : 204 MiB (4%)
Title                                    : / 2.0 Ch / 192 kbps / ДЗ / 1+1
Language                                 : Ukrainian
Service kind                             : Complete Main
Default                                  : Yes
Forced                                   : Yes

Audio #2
ID                                       : 3
Format                                   : AC-3
Format/Info                              : Audio Coding 3
Commercial name                          : Dolby Digital
Codec ID                                 : A_AC3
Duration                                 : 2 h 28 min
Bit rate mode                            : Constant
Bit rate                                 : 448 kb/s
Channel(s)                               : 6 channels
Channel layout                           : L R C LFE Ls Rs
Sampling rate                            : 48.0 kHz
Frame rate                               : 31.250 FPS (1536 SPF)
Bit depth                                : 16 bits
Compression mode                         : Lossy
Stream size                              : 477 MiB (8%)
Title                                    : / 5.1 Ch / 448 kbps / Original
Language                                 : English
Service kind                             : Complete Main
Default                                  : No
Forced                                   : No

Text #1
ID                                       : 4
Format                                   : UTF-8
Codec ID                                 : S_TEXT/UTF8
Codec ID/Info                            : UTF-8 Plain Text
Duration                                 : 1 h 48 min
Bit rate                                 : 50 b/s
Count of elements                        : 649
Stream size                              : 39.9 KiB (0%)
Title                                    : Full
Language                                 : Ukrainian
Default                                  : Yes
Forced                                   : No

Text #2
ID                                       : 5
Format                                   : UTF-8
Codec ID                                 : S_TEXT/UTF8
Codec ID/Info                            : UTF-8 Plain Text
Duration                                 : 1 h 48 min
Bit rate                                 : 32 b/s
Count of elements                        : 649
Stream size                              : 25.7 KiB (0%)
Title                                    : Full
Language                                 : English
Default                                  : No
Forced                                   : No

Menu
00:00:00.000                             : :Overture
00:02:57.177                             : :Main Title
00:04:39.112                             : :The Dawn of Man
00:11:40.032                             : :Apparition and Revelation
00:16:58.017                             : :The Fittest
00:19:53.025                             : :To the Moon
00:25:29.027                             : :Voice Print Identification
00:27:38.156                             : :Squirt
00:29:29.601                             : :Great Big Mystery
00:33:46.024                             : :Off to Clavius
00:41:08.632                             : :Purpose of the Visit
00:45:37.568                             : :Deliberately Buried
00:50:56.553                             : :The Monolith
00:54:42.946                             : :Jupiter Mission
00:58:33.676                             : :The World Tonight
01:03:55.998                             : :Frank's Parents
01:06:05.294                             : :Sketches and Suspicions
01:12:10.659                             : :Removing the Ae35
01:18:51.893                             : :Human Error?
01:23:01.476                             : :Bad Feeling
01:27:02.217                             : :Intermission
01:27:49.264                             : :Entr'acte
01:30:07.735                             : :Cut Adrift
01:32:50.898                             : :Rescue Mission
01:38:35.576                             : :Terminated
01:40:47.082                             : :Open the Pod Bay Doors
01:45:35.495                             : :Emergency Airlock
01:49:41.575                             : :My Mind Is Going
01:55:19.746                             : :Prerecorded Briefing
01:57:06.185                             : :Jupiter...
02:01:28.281                             : :...and Beyond the Infinite
02:11:33.385                             : :Future Selves
02:17:57.602                             : :Star Child
02:20:33.424                             : :End Credits & Exit Music
Світлини




Джерело: &
Особиста оцінка: 0 - не дивився


Срібний реліз (на рейтинг впливає 50% завантаженого)
 Трекер:    Зареєстрований   

Завантажити / скачати фільм українською



відео для новачків



 Зареєстрований:   2019-11-07 01:23
 Розмір:   5.65 GB 
 Оцінка фільму:   8.9/10 (Голосів: 18)
   
Akio Furukawa 
Свій


З нами з: 02.11.19
Востаннє: 24.09.20
Повідомлень: 105

2019-12-09 00:23  
Переважна більшість фільмів із наголосом та ставкою на видовищність і спецефекти має проблеми з наповненням суттю. Основних варіантів трапляється два: або суть полягає в якійсь дуже простій ідеї чи думці (як в «Аватарі» наприклад), або суті як такої майже (чи зовсім) немає. Цей фільм являє собою другий випадок. Таке відчуття, ніби автори забули, з чого почали й не знайшли рішення, як завершити розпочате. Не можу знайти іншого пояснення суцільної маячні фінальних сцен. Та й на початку ті мавпи незбагненно яким боком до космічних кораблів, що бороздять бальшой театр. Також суцільна затягнутість через безліч багатохвилинних сцен, де нічого не відбувається, викликає непозбувний жаль за даремно витраченим часом. Отже, у підсумку я ознайомився із черговим всесвітньо відомим зразком кінематографа, чергові висновки зроблені й цей дослід можна вважати завершеним.
2/10

Ваш часовий пояс: GMT + 2 Години

Нова тема   Відповісти