Загублена / Gone Girl (2014) 1080p H.265 Ukr/Eng | Sub Ukr/Eng

Нові коментарі

Нова тема   Відповісти
Автор Повідомлення
Anonymous 







2019-11-07 00:59  
Загублена / Gone Girl (2014) 1080p H.265 Ukr/Eng | Sub Ukr/Eng

Загублена / Gone Girl (2014) 1080p H.265 Ukr/Eng | Sub Ukr/Eng


Жанр: трилер, драма, детектив
Країна: США
Кінокомпанія: Artemple - Hollywood, New Regency Pictures, Pacific Standard, Regency Enterprises
Режисер: Девід Фінчер
Актори: Бен Аффлек, Розамунд Пайк, Ніл Патрік Харріс, Тайлер Перрі, Керрі Кун, Кім Дікенс, Патрік Фуджит.

Сюжет:
Все було готове для святкування п'ятирічного ювілею подружнього життя, коли раптом з незрозумілих причин пропав один із винуватців свята. Залишилися сліди боротьби в будинку, кров, яку явно намагалися стерти, - і ланцюжок «ключів» у грі під назвою «полювання за скарбами»; красива, розумна і неймовірно винахідлива дружина щорічно влаштовувала її для свого обожнюваного чоловіка. І схоже, що ці «ключі» - розміщені нею тут і там дивні записки і не менш дивні дрібнички - дають єдиний шанс пролити світло на долю зниклої. От тільки чи не доведеться «мисливцеві» в процесі пошуку розкрити світу і пару-трійку власних неприємних таємниць?

Тривалість: 02:29:01
Якість:

Відео:
кодек: H.265 (HEVC)
розмір кадру: 1920 x 800
бітрейт: 6 721 кб/с
бітова глибина: 10 біт

Увага! Перед завантаженням переконайтесь, що ваш пристрій відтворення (та/або ПЗ) підтримує H.265 (HEVC)

Аудіо # 1:
мова: українська
переклад: професійний дубльований
кодек: AC-3 5.1
бітрейт: 448 кб/с

Аудіо # 2:
мова: англійська
переклад: оригінал
кодек: 5.1
бітрейт: 1510 кб/с

Субтитри # 1: (Full)
мова: українська
тип: програмні (м'які)
формат: *.srt

Субтитри # 2: (Full)
мова: англійська
тип: програмні (м'які)
формат: *.srt


Info
Код:
General
Unique ID                                : 31256441099050485333047725678431657336 (0x1783C586B5CC35C40804313F59C95D78)
Complete name                            : Gone Girl (2014) 1080p H.265 [UKR_ENG] [Hurtom].
Format                                   :
Format version                           : Version 4
File size                                : 9.04 GiB
Duration                                 : 2 h 29 min
Overall bit rate                         : 8 681 kb/s
Movie name                               : Загублена / Gone Girl (2014)
Encoded date                             : UTC 2019-11-06 08:24:39
Writing application                      : v20.0.0 ('I Am The Sun') 64-bit
Writing library                          : libebml v1.3.5 + v1.4.8
Cover                                    : Yes
Attachments                              : Cover.jpg

Video
ID                                       : 1
Format                                   : HEVC
Format/Info                              : High Efficiency Video Coding
Format profile                           : Main [email protected]@High
Codec ID                                 : V_MPEGH/ISO/HEVC
Duration                                 : 2 h 29 min
Bit rate                                 : 6 721 kb/s
Width                                    : 1 920 pixels
Height                                   : 800 pixels
Display aspect ratio                     : 2.40:1
Frame rate mode                          : Constant
Frame rate                               : 23.976 (24000/1001) FPS
Color space                              : YUV
Chroma subsampling                       : 4:2:0
Bit depth                                : 10 bits
Bits/(Pixel*Frame)                       : 0.183
Stream size                              : 7.00 GiB (77%)
Title                                    : Загублена / Gone Girl (2014)
Writing library                          : x265 3.1+7-147fb92c5ed5:[Windows][clang 8.0.0][64 bit] 10bit
Encoding settings                        : cpuid=1111039 / frame-threads=13 / wpp / no-pmode / no-pme / no-psnr / no-ssim / log-level=3 / input-csp=1 / input-res=1920x800 / interlace=0 / total-frames=0 / level-idc=41 / high-tier=1 / uhd-bd=0 / ref=5 / allow-non-conformance / no-repeat-headers / annexb / no-aud / no-hrd / info / hash=0 / no-temporal-layers / open-gop / min-keyint=23 / keyint=240 / gop-lookahead=0 / bframes=8 / b-adapt=2 / b-pyramid / bframe-bias=0 / rc-lookahead=60 / lookahead-slices=4 / scenecut=40 / radl=0 / no-splice / no-intra-refresh / ctu=64 / min-cu-size=8 / rect / amp / max-tu-size=32 / tu-inter-depth=4 / tu-intra-depth=4 / limit-tu=4 / rdoq-level=2 / dynamic-rd=0.00 / no-ssim-rd / signhide / no-tskip / nr-intra=0 / nr-inter=0 / no-constrained-intra / no-strong-intra-smoothing / max-merge=5 / limit-refs=3 / limit-modes / me=3 / subme=7 / merange=57 / temporal-mvp / no-hme / weightp / weightb / no-analyze-src-pics / deblock=-3:-3 / no-sao / no-sao-non-deblock / rd=6 / no-early-skip / no-rskip / no-fast-intra / no-tskip-fast / no-cu-lossless / no-b-intra / no-splitrd-skip / rdpenalty=0 / psy-rd=2.00 / psy-rdoq=1.00 / no-rd-refine / no-lossless / cbqpoffs=0 / crqpoffs=0 / rc=crf / crf=17.5 / qcomp=0.60 / qpstep=4 / stats-write=0 / stats-read=0 / vbv-maxrate=50000 / vbv-bufsize=50000 / vbv-init=0.9 / crf-max=30.0 / crf-min=0.0 / ipratio=1.40 / pbratio=1.30 / aq-mode=2 / aq-strength=1.00 / no-cutree / zone-count=0 / no-strict-cbr / qg-size=32 / no-rc-grain / qpmax=69 / qpmin=0 / no-const-vbv / sar=1 / overscan=0 / videoformat=5 / range=0 / colorprim=1 / transfer=1 / colormatrix=1 / chromaloc=0 / display-window=0cll=0,0 / min-luma=0 / max-luma=1023 / log2-max-poc-lsb=8 / vui-timing-info / vui-hrd-info / slices=1 / no-opt-qp-pps / no-opt-ref-list-length-pps / no-multi-pass-opt-rps / scenecut-bias=0.05 / no-opt-cu-delta-qp / no-aq-motion / no-hdr / no-hdr-opt / no-dhdr10-opt / no-idr-recovery-sei / analysis-reuse-level=5 / scale-factor=0 / refine-intra=0 / refine-inter=0 / refine-mv=0 / refine-ctu-distortion=0 / no-limit-sao / ctu-info=0 / no-lowpass-dct / refine-analysis-type=0 / copy-pic=1 / max-ausize-factor=1.0 / no-dynamic-refine / no-single-sei / no-hevc-aq / no-svt / no-field / qp-adaptation-range=1.00
Language                                 : English
Default                                  : Yes
Forced                                   : No
Color range                              : Limited
Color primaries                          : BT.709
Transfer characteristics                 : BT.709
Matrix coefficients                      : BT.709

Audio #1
ID                                       : 2
Format                                   : AC-3
Format/Info                              : Audio Coding 3
Commercial name                          : Dolby Digital
Codec ID                                 : A_AC3
Duration                                 : 2 h 29 min
Bit rate mode                            : Constant
Bit rate                                 : 448 kb/s
Channel(s)                               : 6 channels
Channel layout                           : L R C LFE Ls Rs
Sampling rate                            : 48.0 kHz
Frame rate                               : 31.250 FPS (1536 SPF)
Bit depth                                : 16 bits
Compression mode                         : Lossy
Stream size                              : 478 MiB (5%)
Title                                    : / 5.1 Ch / 448 kbps / ПД / Blu-Ray
Language                                 : Ukrainian
Service kind                             : Complete Main
Default                                  : Yes
Forced                                   : Yes

Audio #2
ID                                       : 3
Format                                   : ES
Format/Info                              : Digital Theater Systems
Commercial name                          : -ES Matrix
Codec ID                                 : A_DTS
Duration                                 : 2 h 29 min
Bit rate mode                            : Constant
Bit rate                                 : 1 509 kb/s
Channel(s)                               : 6 channels
Channel(s)_Original                      : 7 channels
ChannelLayout_Original                   : C L R Ls Rs Cs LFE
Sampling rate                            : 48.0 kHz
Frame rate                               : 93.750 FPS (512 SPF)
Bit depth                                : 24 bits
Compression mode                         : Lossy
Stream size                              : 1.57 GiB (17%)
Title                                    : -ES / 5.1 Ch / 1509 kbps / Original
Language                                 : English
Default                                  : No
Forced                                   : No

Text #1
ID                                       : 4
Format                                   : UTF-8
Codec ID                                 : S_TEXT/UTF8
Codec ID/Info                            : UTF-8 Plain Text
Duration                                 : 2 h 28 min
Bit rate                                 : 128 b/s
Count of elements                        : 2508
Stream size                              : 140 KiB (0%)
Title                                    : Full
Language                                 : Ukrainian
Default                                  : Yes
Forced                                   : No

Text #2
ID                                       : 5
Format                                   : UTF-8
Codec ID                                 : S_TEXT/UTF8
Codec ID/Info                            : UTF-8 Plain Text
Duration                                 : 2 h 24 min
Bit rate                                 : 76 b/s
Count of elements                        : 2441
Stream size                              : 81.1 KiB (0%)
Title                                    : Full
Language                                 : English
Default                                  : No
Forced                                   : No

Menu
00:00:00.000                             : :00:00:00.000
00:03:27.958                             : :00:03:27.958
00:06:57.834                             : :00:06:57.834
00:08:19.541                             : :00:08:19.541
00:11:58.593                             : :00:11:58.593
00:15:01.484                             : :00:15:01.484
00:18:13.509                             : :00:18:13.509
00:19:56.737                             : :00:19:56.737
00:21:43.093                             : :00:21:43.093
00:23:53.849                             : :00:23:53.849
00:28:34.880                             : :00:28:34.880
00:31:32.516                             : :00:31:32.516
00:34:39.077                             : :00:34:39.077
00:40:51.199                             : :00:40:51.199
00:44:37.383                             : :00:44:37.383
00:46:57.815                             : :00:46:57.815
00:49:19.707                             : :00:49:19.707
00:54:13.333                             : :00:54:13.333
01:00:06.686                             : :01:00:06.686
01:03:16.209                             : :01:03:16.209
01:06:08.715                             : :01:06:08.715
01:12:56.998                             : :01:12:56.998
01:15:13.008                             : :01:15:13.008
01:19:54.456                             : :01:19:54.456
01:21:56.120                             : :01:21:56.120
01:27:24.156                             : :01:27:24.156
01:28:12.537                             : :01:28:12.537
01:33:28.561                             : :01:33:28.561
01:39:34.510                             : :01:39:34.510
01:46:26.714                             : :01:46:26.714
01:50:46.515                             : :01:50:46.515
01:56:40.619                             : :01:56:40.619
01:59:06.097                             : :01:59:06.097
02:02:23.127                             : :02:02:23.127
02:05:35.069                             : :02:05:35.069
02:12:30.818                             : :02:12:30.818
02:16:12.790                             : :02:16:12.790
02:19:56.930                             : :02:19:56.930
02:22:42.304                             : :02:22:42.304
02:24:15.647                             : :02:24:15.647
Світлини




Джерело: &
Особиста оцінка: 10 - без зайвих вагань рекомендую всім!


 Трекер:    Зареєстрований   

Завантажити / скачати фільм українською



відео для новачків



 Зареєстрований:   2019-11-07 00:59
 Розмір:   9.04 GB 
 Оцінка фільму:   9.4/10 (Голосів: 8)
   
Інші релізи
   Загублена / Gone Girl (2014) 720p-mini Ukr/Eng | Sub Ukr/Eng BASTERD-94  7 / 0   3.14 GB   2015-03-31 21:30 
   Загублена / Gone Girl (2014) AngryBirdsUA  21 / 1   2.18 GB   2014-12-21 23:33 
   Загублена / Gone Girl (2014) 720p Ukr/Eng | Sub Ukr/Eng 11FrYkT  13 / 0   5.92 GB   2014-12-21 10:05 
   Загублена / Gone Girl (2014) 1080p Ukr/Eng | Sub Ukr/Eng 11FrYkT  11 / 0   8.86 GB   2014-12-20 19:58 
   Загублена / Gone Girl (2014) Remux 1080p Ukr/Eng | Sub Ukr/Eng SkiF  2 / 0   38.79 GB   2014-12-20 17:41 
   Загублена / Gone Girl (2014) AVC Ukr/Eng | Sub Ukr/Eng Gelios  7 / 0   2.2 GB   2014-12-20 17:31 
   Загублена / Gone Girl (2014) Ukr/Eng antik_2008  1 / 0   2.78 GB   2014-12-20 00:59 
antik_2008 
Релізер і модератор відео


З нами з: 20.10.08
Востаннє: 25.09.20
Повідомлень: 4153

2019-11-07 01:10  
Гарний фільм. Дякую за реліз.
Anonymous 







2019-11-07 01:16  
antik_2008
Будь ласка Happy

MakRA 
VIP


З нами з: 11.11.18
Востаннє: 26.09.20
Повідомлень: 1120

2019-11-07 01:19  
Цікаво, не бачив. Дякую.
Anonymous 







2019-11-07 01:24  
MakRA написано:
Цікаво, не бачив. Дякую.

Прошу Happy

Ваш часовий пояс: GMT + 2 Години

Нова тема   Відповісти