Буремна троянда / Crache coeur (2015) 720p Fre | sub Ukr/Fre/Pol/Eng

Нові коментарі

Нова тема   Відповісти
Останній раз роздавалося rakab (2020-12-02)
Автор Повідомлення
Anonymous 







2019-11-06 12:53  
Буремна троянда / Crache coeur (2015) 720p Fre | sub Ukr/Fre/Pol/Eng



Жанр: драма
Країна: Франція, Польща



Режисер: Джулія (Юлія) Ковальські
Кінокомпанія: Les Films de Françoise, Donten & Lacroix Films, Polski Instytut Sztuki Filmowej
Актори: Анджей Хира, Лів Геннегьє, Йоанн Ціммер, Артур Стеранко.

Сюжет:
Юзеф — простий поляк, який приїздить до Франції, щоб знайти заробіток на будівництві й заразом розшукати свого сина Романа, якого він кинув 15 років тому.
Донька його роботодавця Роза, — підліток, яка переживає бурхливу трансформацію в жінку, пропонує йому свою допомогу в пошуках. Вона без тями закохується в Романа, їхні стосунки призводять до непередбачуваних наслідків.


Тривалість: 01:19:00
Якість:
Відео:
кодек:
розмір кадру: 1280 х 720
бітрейт: 2731 кб/с

Аудіо:
мова: французька, польська
переклад: оригінал
кодек: 2.0
бітрейт: 125 кб/с

Субтитри:
мова: українська
тип: програмні (м'які)
формат: *.srt
переклад: artekinofestival

Субтитри:
мова: французька
тип: програмні (м'які)
формат: *.srt

Субтитри:
мова: польська
тип: програмні (м'які)
формат: *.srt

Субтитри:
мова: англійська
тип: програмні (м'які)
формат: *.srt
МediaІnfo
Video
ID : 1
Format : AVC
Format/Info : Advanced Video Codec
Format profile : [email protected]
Format settings : CABAC / 3 Ref Frames
Format settings, CABAC : Yes
Format settings, Reference : 3 frames
Codec ID : V_MPEG4/ISO/AVC
Duration : 1 h 19 min
Bit rate : 2 731 kb/s
Width : 1 280 pixels
Height : 720 pixels
Display aspect ratio : 16:9
Frame rate mode : Constant
Frame rate : 25.000 FPS
Standard : PAL
Color space : YUV
Chroma subsampling : 4:2:0
Bit depth : 8 bits
Scan type : Progressive
Bits/(Pixel*Frame) : 0.119
Stream size : 1.51 GiB (96%)
Language : French
Default : Yes
Forced : No
Color range : Limited

Audio
ID : 2
Format : LC
Format/Info : Advanced Audio Codec Low Complexity
Codec ID : A_AAC-2
Duration : 1 h 19 min
Bit rate : 125 kb/s
Channel(s) : 2 channels
Channel layout : L R
Sampling rate : 48.0 kHz
Frame rate : 46.875 FPS (1024 SPF)
Compression mode : Lossy
Delay relative to video : -80 ms
Stream size : 70.9 MiB (4%)
Language : French
Default : Yes
Forced : No

Text #1
ID : 3
Format : UTF-8
Codec ID : S_TEXT/UTF8
Codec ID/Info : UTF-8 Plain Text
Duration : 1 h 12 min
Bit rate : 42 b/s
Count of elements : 561
Stream size : 22.8 KiB (0%)
Language : Ukrainian
Default : Yes
Forced : No

Text #2
ID : 4
Format : UTF-8
Codec ID : S_TEXT/UTF8
Codec ID/Info : UTF-8 Plain Text
Duration : 59 min 16 s
Bit rate : 1 b/s
Count of elements : 20
Stream size : 713 Bytes (0%)
Language : French
Default : No
Forced : No

Text #3
ID : 5
Format : UTF-8
Codec ID : S_TEXT/UTF8
Codec ID/Info : UTF-8 Plain Text
Duration : 1 h 14 min
Bit rate : 21 b/s
Count of elements : 539
Stream size : 11.8 KiB (0%)
Language : Polish
Default : No
Forced : No

Text #4
ID : 6
Format : UTF-8
Codec ID : S_TEXT/UTF8
Codec ID/Info : UTF-8 Plain Text
Duration : 1 h 12 min
Bit rate : 23 b/s
Count of elements : 553
Stream size : 12.3 KiB (0%)
Language : English
Default : No
Forced : No
Скріншоти









Подяка: Пану Стасу, за наданий відеоряд.
Джерело:
Особиста оцінка: 0 - не дивився


 Трекер:    Зареєстрований   

Завантажити / скачати фільм українською



відео для новачків



 Зареєстрований:   2019-11-06 12:53
 Розмір:   1.58 GB 
 Оцінка фільму:   8/10 (Голосів: 2)
   
ssTAss 
Модератор музики


З нами з: 05.07.08
Востаннє: 04.12.20
Повідомлень: 17080

2019-11-06 21:51  
Anonymous написано:

Кінокомпанія: Les Films de Françoise, Donten & Lacroix Films, Polski Instytut Sztuki Filmowej
Актори: Анджей Хира, Лів Геннегьє, Йоанн Ціммер, Артур Стеранко.

рядок Режисер пропустили

Anonymous 







2019-11-07 18:39  
ssTAss написано:
пропустили

Дякую, додав.

Ваш часовий пояс: GMT + 2 Години

Нова тема   Відповісти