Пан Робот / Містер Робот (Сезон 4, Серії 1-9) / Mr. Robot (Season 4, Episodes 1-9) (2019) 1080p H.265 Ukr/Eng | Sub Eng

Нові коментарі

Нова тема   Відповісти
Автор Повідомлення
Anonymous 







2019-11-05 10:07  
Пан Робот / Містер Робот (Сезон 4, Серії 1-9) / Mr. Robot (Season 4, Episodes 1-9) (2019) 1080p H.265 Ukr/Eng | Sub Eng

Пан Робот / Містер Робот (Сезон 4, Серії 1-9) / Mr. Robot (Season 4, Episodes 1-9) (2019) 1080p H.265 Ukr/Eng | Sub Eng


Жанр: кримінальний, драма, трилер
Країна: США
Кінокомпанія: Universal Cable Productions / USA Network
Режисер: Сем Есмейл
Актори: Рамі Малек, Карлі Чайкін, Порша Даблдей, Мартін Вальстрьом, Крістіан Слейтер, Стефані Карнілюсен та інші.

Сюжет:
Пан Робот – це психологічний трилер про Еліота, молодого програміста, який вдень працює інженером з кібер-безпеки, а вночі – *гакером-месником. Еліот виявляється на роздоріжжі, коли таємничий лідер підпільної групи гакерів завербовує його, щоб знищити корпорацію, яка найняла його захищати її. Через особисті переконання Еліот не впевнений, що хоче покласти на лопатки керівників міжнародних конгломератів, які, на його думку, керують світом і руйнують його.

Тривалість: 1 серія: ~ 50 хв. (цілком серій: 9/13)
Перелік серій
01. 401 Unauthorized
02. 402 Payment Required
03. 403 Forbidden
04. 404 Not Found
05. 405 Method Not Allowed
06. 406 Not Acceptable
07. 407 Proxy Authentication Required
08. 408 Request Timeout
09. 409 Conflict
10. 410 Gone
11. 411 Length Required
12. 412 Precondition Failed
13. 413 Request Entity Too Large
Якість:

Відео:
кодек: H.265 (HEVC)
розмір кадру: 1920 x 1080
бітрейт: 4 232 кб/с
бітова глибина: 10 біт

Увага! Перед завантаженням переконайтесь, що ваш пристрій відтворення (та/або ПЗ) підтримує H.265 (HEVC)

Аудіо # 1:
мова: українська
переклад: багатоголосий закадровий ,
кодек: AC-3 5.1
бітрейт: 448 кб/с

Аудіо # 2:
мова: англійська
переклад: оригінал
кодек: E-AC-3 5.1
бітрейт: 640 кб/с

Субтитри # 1-2: (Full, SDH)
мова: англійська
тип: програмні (м'які)
формат: *.srt


Info
Код:
General
Unique ID                                : 254372042358295166927864832781120895939 (0xBF5E45F9901B4C70A38D63860AAEFBC3)
Complete name                            : Mr. Robot (2019) - S04E01 - 401 Unauthorized - 1080p H.265 [UKR_ENG] [Hurtom].
Format                                   :
Format version                           : Version 4
File size                                : 2.27 GiB
Duration                                 : 1 h 1 min
Overall bit rate                         : 5 321 kb/s
Movie name                               : Mr. Robot (2019) - S04E01 - 401 Unauthorized
Encoded date                             : UTC 2019-11-05 07:43:58
Writing application                      : v20.0.0 ('I Am The Sun') 64-bit
Writing library                          : libebml v1.3.5 + v1.4.8
Cover                                    : Yes
Attachments                              : Cover.jpg

Video
ID                                       : 1
Format                                   : HEVC
Format/Info                              : High Efficiency Video Coding
Format profile                           : Main [email protected]@Main
Codec ID                                 : V_MPEGH/ISO/HEVC
Duration                                 : 1 h 0 min
Bit rate                                 : 4 232 kb/s
Width                                    : 1 920 pixels
Height                                   : 1 080 pixels
Display aspect ratio                     : 16:9
Frame rate mode                          : Constant
Frame rate                               : 23.976 (24000/1001) FPS
Color space                              : YUV
Chroma subsampling                       : 4:2:0
Bit depth                                : 10 bits
Bits/(Pixel*Frame)                       : 0.085
Stream size                              : 1.80 GiB (80%)
Title                                    : Mr. Robot (2019) - S04E01 - 401 Unauthorized
Writing library                          : x265 3.1+20-913823aa15cd:[Windows][MSVC 1922][64 bit] 10bit
Encoding settings                        : cpuid=1111039 / frame-threads=2 / numa-pools=4 / wpp / no-pmode / no-pme / no-psnr / no-ssim / log-level=2 / input-csp=1 / input-res=1920x1080 / interlace=0 / total-frames=87730 / level-idc=0 / high-tier=1 / uhd-bd=0 / ref=4 / no-allow-non-conformance / no-repeat-headers / annexb / no-aud / no-hrd / info / hash=0 / no-temporal-layers / open-gop / min-keyint=23 / keyint=250 / gop-lookahead=0 / bframes=8 / b-adapt=2 / b-pyramid / bframe-bias=0 / rc-lookahead=100 / lookahead-slices=4 / scenecut=40 / radl=0 / no-splice / no-intra-refresh / ctu=64 / min-cu-size=8 / no-rect / no-amp / max-tu-size=32 / tu-inter-depth=1 / tu-intra-depth=1 / limit-tu=0 / rdoq-level=2 / dynamic-rd=0.00 / no-ssim-rd / signhide / no-tskip / nr-intra=0 / nr-inter=0 / no-constrained-intra / no-strong-intra-smoothing / max-merge=3 / limit-refs=3 / limit-modes / me=3 / subme=7 / merange=92 / temporal-mvp / no-hme / weightp / no-weightb / no-analyze-src-pics / deblock=0:0 / sao / no-sao-non-deblock / rd=4 / selective-sao=4 / no-early-skip / rskip / no-fast-intra / no-tskip-fast / no-cu-lossless / no-b-intra / no-splitrd-skip / rdpenalty=0 / psy-rd=1.50 / psy-rdoq=1.00 / no-rd-refine / no-lossless / cbqpoffs=0 / crqpoffs=0 / rc=crf / crf=20.0 / qcomp=0.60 / qpstep=4 / stats-write=0 / stats-read=0 / ipratio=1.40 / pbratio=1.30 / aq-mode=3 / aq-strength=1.20 / cutree / zone-count=0 / no-strict-cbr / qg-size=32 / no-rc-grain / qpmax=69 / qpmin=0 / no-const-vbv / sar=0 / overscan=0 / videoformat=5 / range=0 / colorprim=2 / transfer=2 / colormatrix=2 / chromaloc=0 / display-window=0 / cll=0,0 / min-luma=0 / max-luma=1023 / log2-max-poc-lsb=8 / vui-timing-info / vui-hrd-info / slices=1 / no-opt-qp-pps / no-opt-ref-list-length-pps / no-multi-pass-opt-rps / scenecut-bias=0.05 / no-opt-cu-delta-qp / no-aq-motion / no-hdr / no-hdr-opt / no-dhdr10-opt / no-idr-recovery-sei / analysis-reuse-level=5 / scale-factor=0 / refine-intra=0 / refine-inter=0 / refine-mv=1 / refine-ctu-distortion=0 / no-limit-sao / ctu-info=0 / no-lowpass-dct / refine-analysis-type=0 / copy-pic=1 / max-ausize-factor=1.0 / no-dynamic-refine / no-single-sei / no-hevc-aq / no-svt / no-field / qp-adaptation-range=1.00
Language                                 : English
Default                                  : Yes
Forced                                   : No

Audio #1
ID                                       : 2
Format                                   : AC-3
Format/Info                              : Audio Coding 3
Commercial name                          : Dolby Digital
Codec ID                                 : A_AC3
Duration                                 : 1 h 1 min
Bit rate mode                            : Constant
Bit rate                                 : 448 kb/s
Channel(s)                               : 6 channels
Channel layout                           : L R C LFE Ls Rs
Sampling rate                            : 48.0 kHz
Frame rate                               : 31.250 FPS (1536 SPF)
Bit depth                                : 16 bits
Compression mode                         : Lossy
Stream size                              : 195 MiB (8%)
Title                                    : / 5.1 Ch / 448 kbps / БЗ / Цікава Ідея
Language                                 : Ukrainian
Service kind                             : Complete Main
Default                                  : Yes
Forced                                   : Yes

Audio #2
ID                                       : 3
Format                                   : E-AC-3
Format/Info                              : Enhanced AC-3
Commercial name                          : Dolby Digital Plus
Codec ID                                 : A_EAC3
Duration                                 : 1 h 0 min
Bit rate mode                            : Constant
Bit rate                                 : 640 kb/s
Channel(s)                               : 6 channels
Channel layout                           : L R C LFE Ls Rs
Sampling rate                            : 48.0 kHz
Frame rate                               : 31.250 FPS (1536 SPF)
Compression mode                         : Lossy
Stream size                              : 279 MiB (12%)
Title                                    : E- / 5.1 Ch / 640 kbps / Original
Language                                 : English
Service kind                             : Complete Main
Default                                  : No
Forced                                   : No

Text #1
ID                                       : 4
Format                                   : UTF-8
Codec ID                                 : S_TEXT/UTF8
Codec ID/Info                            : UTF-8 Plain Text
Duration                                 : 1 h 0 min
Bit rate                                 : 56 b/s
Count of elements                        : 835
Stream size                              : 25.1 KiB (0%)
Title                                    : Full
Language                                 : English
Default                                  : Yes
Forced                                   : No

Text #2
ID                                       : 5
Format                                   : UTF-8
Codec ID                                 : S_TEXT/UTF8
Codec ID/Info                            : UTF-8 Plain Text
Duration                                 : 1 h 0 min
Bit rate                                 : 65 b/s
Count of elements                        : 1143
Stream size                              : 28.9 KiB (0%)
Title                                    : SDH
Language                                 : English
Default                                  : No
Forced                                   : No
Світлини








Джерело: &
Особиста оцінка: 10 - без зайвих вагань рекомендую всім!


Авторський реліз (завантажувати можна без реєстрації)
 Трекер:    Зареєстрований   

Завантажити / скачати серіал українською



відео для новачків



 Зареєстрований:   2019-12-05 02:06
 Розмір:   14.23 GB 
 Оцінка серіалу:   8.5/10 (Голосів: 6)
   
uaxpasha 
VIP


З нами з: 05.08.12
Востаннє: 07.12.19
Повідомлень: 275

2019-11-22 22:22  
4 сезон без сабів буде? Sad (1)

Серіал один з найкращих на сьогодні, після першої серії 4 сезону зрозумів що треба передивитись його, якість на висоті, підходяща музика і дуже оригінальні зйомки.
+ слава Сему Есмейлу за те що не став розтягувати серіал і робить як і хотів всього 4 сезони.

Anonymous 







2019-12-05 02:07  
Додано 9 серію.
Ваш часовий пояс: GMT + 2 Години

Нова тема   Відповісти