Гудзонський яструб / Hudson Hawk (1991) Remux 1080p 3xUkr/Eng | Sub Eng

Нові коментарі

Нова тема   Відповісти
Останній раз роздавалося tatyana94 (2020-09-25)
Автор Повідомлення
MakRA 
VIP


З нами з: 11.11.18
Востаннє: 25.09.20
Повідомлень: 1120

2019-11-05 00:39  
Гудзонський яструб / Hudson Hawk (1991) Remux 1080p 3xUkr/Eng | Sub Eng


Українізована обкладинка:

Жанр: комедія, пригодницький, екшн
Країна: США



Кінокомпанія: TriStar Pictures, Silver Pictures, Ace Bone
Режисер: Майкл Леманн [Michael Lehmann]
Актори: Брюс Вілліс [Bruce Willis], Денні Айєлло [Danny Aiello], Енді МакДауелл [Andie MacDowell], Джеймс Коберн [James Coburn], Річард Е. Грант [Richard E. Grant], Сандра Бернхард [Sandra Bernhard], Дональд Бертон [Donald Burton], Дон Гарві [Don Harvey], Девід Карузо [David Caruso], Ендрю Брінярські [Andrew Bryniarski]

Сюжет:
Симпатична, авантюрна, навіть пародійна пригодницька кінокомедія про хитромудру аферу та неймовірні пригоди знаменитого злодія Едді Хокінса на прізвисько Гудзонський Яструб.
Едді виходить із в’язниці та вирішує покінчити з криміналом. Але є люди, котрі не дають здійснитися задуманому та примушують його піти на чергову «справу». Шляхом шантажу вони змушують крадія здійнити пограбування в одному із найвідоміших музеїв світу..


Тривалість: 01:39:54
Якість: Remux 1080p [GER Transfer]
Відео:
кодек:
розмір кадру: 1920 х 1080
бітрейт: 22,9 Mб/с

Аудіо # 1:
мова: українська
переклад: багатоголосий закадровий
кодек: 2.0
бітрейт: 192 кб/с

Аудіо # 2:
мова: українська
переклад: багатоголосий закадровий
кодек: 2.0
бітрейт: 192 кб/с

Аудіо # 3:
мова: українська
переклад: двоголосий закадровий
кодек: 2.0
бітрейт: 192 кб/с

Аудіо # 4:
мова: англійська
переклад: оригінал
кодек: -HD MA 2.0
бітрейт: 1892 кб/с

Аудіо # 5:
мова: англійська
переклад: оригінал
кодек: 2.0
бітрейт: 192 кб/с

Аудіо # 6:
мова: англійська
переклад: коментарі режисера Майкла Леманна
кодек: 2.0
бітрейт: 192 кб/с

Субтитри # 1: (Full)
мова: англійська
тип: пререндерні
формат: *.pgs

Субтитри # 2: (SDH)
мова: англійська
тип: пререндерні
формат: *.pgs
Info
General
Unique ID : 11096365766999670128974787247928406117 (0x85915124C433BE0EB11E3816C1A7065)
Complete name : I:\+Фільмографії- Брюс Вілліс [Bruce Willis]\Hudson Hawk (1991) Remux 1080p 3xUkrEng Sub Eng [Hurtom].
Format :
Format version : Version 4
File size : 18.0 GiB
Duration : 1 h 39 min
Overall bit rate mode : Variable
Overall bit rate : 25.8 Mb/s
Movie name : Гудзонський яструб / Hudson Hawk (1991) Remux 1080p 3xUkr/Eng | Sub Eng [Hurtom]
Encoded date : UTC 2019-11-04 20:36:16
Writing application : v25.0.0 ('Prog Noir') 64-bit
Writing library : libebml v1.3.6 + v1.4.9
Cover : Yes
Attachments : cover.jpg

Video
ID : 1
Format : AVC
Format/Info : Advanced Video Codec
Format profile : [email protected]
Format settings : CABAC / 2 Ref Frames
Format settings, CABAC : Yes
Format settings, Reference fra : 2 frames
Codec ID : V_MPEG4/ISO/AVC
Duration : 1 h 39 min
Bit rate mode : Variable
Bit rate : 22.9 Mb/s
Width : 1 920 pixels
Height : 1 080 pixels
Display aspect ratio : 16:9
Frame rate mode : Constant
Frame rate : 23.976 (24000/1001) FPS
Color space : YUV
Chroma subsampling : 4:2:0
Bit depth : 8 bits
Scan type : Progressive
Bits/(Pixel*Frame) : 0.461
Stream size : 16.0 GiB (89%)
Title : Hudson Hawk (1991) Remux 1080p 3xUkr/Eng | Sub Eng [Hurtom]
Language : Ukrainian
Default : Yes
Forced : Yes

Audio #1
ID : 2
Format : AC-3
Format/Info : Audio Coding 3
Commercial name : Dolby Digital
Codec ID : A_AC3
Duration : 1 h 39 min
Bit rate mode : Constant
Bit rate : 192 kb/s
Channel(s) : 2 channels
Channel layout : L R
Sampling rate : 48.0 kHz
Frame rate : 31.250 FPS (1536 SPF)
Bit depth : 16 bits
Compression mode : Lossy
Stream size : 137 MiB (1%)
Title : MVO [ICTV] 2.0
Language : Ukrainian
Service kind : Complete Main
Default : Yes
Forced : Yes

Audio #2
ID : 3
Format : AC-3
Format/Info : Audio Coding 3
Commercial name : Dolby Digital
Codec ID : A_AC3
Duration : 1 h 39 min
Bit rate mode : Constant
Bit rate : 192 kb/s
Channel(s) : 2 channels
Channel layout : L R
Sampling rate : 48.0 kHz
Frame rate : 31.250 FPS (1536 SPF)
Bit depth : 16 bits
Compression mode : Lossy
Stream size : 137 MiB (1%)
Title : MVO [AMC] 2.0
Language : Ukrainian
Service kind : Complete Main
Default : No
Forced : No

Audio #3
ID : 4
Format : AC-3
Format/Info : Audio Coding 3
Commercial name : Dolby Digital
Codec ID : A_AC3
Duration : 1 h 39 min
Bit rate mode : Constant
Bit rate : 192 kb/s
Channel(s) : 2 channels
Channel layout : L R
Sampling rate : 48.0 kHz
Frame rate : 31.250 FPS (1536 SPF)
Bit depth : 16 bits
Compression mode : Lossy
Stream size : 137 MiB (1%)
Title : DVO [ІНТЕР] [КІНО] 2.0
Language : Ukrainian
Service kind : Complete Main
Default : No
Forced : No

Audio #4
ID : 5
Format : XLL
Format/Info : Digital Theater Systems
Commercial name : -HD Master Audio
Codec ID : A_DTS
Duration : 1 h 39 min
Bit rate mode : Variable
Bit rate : 1 892 kb/s
Channel(s) : 2 channels
Channel layout : L R
Sampling rate : 48.0 kHz
Frame rate : 93.750 FPS (512 SPF)
Bit depth : 24 bits
Compression mode : Lossless
Stream size : 1.32 GiB (7%)
Title : Original -HD MA 2.0
Language : English
Default : No
Forced : No

Audio #5
ID : 6
Format : AC-3
Format/Info : Audio Coding 3
Commercial name : Dolby Digital
Codec ID : A_AC3
Duration : 1 h 39 min
Bit rate mode : Constant
Bit rate : 192 kb/s
Channel(s) : 2 channels
Channel layout : L R
Sampling rate : 48.0 kHz
Frame rate : 31.250 FPS (1536 SPF)
Bit depth : 16 bits
Compression mode : Lossy
Stream size : 137 MiB (1%)
Title : Original 2.0
Language : English
Service kind : Complete Main
Default : No
Forced : No

Audio #6
ID : 7
Format : AC-3
Format/Info : Audio Coding 3
Commercial name : Dolby Digital
Codec ID : A_AC3
Duration : 1 h 39 min
Bit rate mode : Constant
Bit rate : 192 kb/s
Channel(s) : 2 channels
Channel layout : L R
Sampling rate : 48.0 kHz
Frame rate : 31.250 FPS (1536 SPF)
Bit depth : 16 bits
Compression mode : Lossy
Stream size : 137 MiB (1%)
Title : Original 2.0 | Commentary with Director Michael Lehmann
Language : English
Service kind : Complete Main
Default : No
Forced : No

Text #1
ID : 8
Format : PGS
Muxing mode : zlib
Codec ID : S_HDMV/PGS
Codec ID/Info : Picture based subtitle format used on BDs/HD-DVDs
Duration : 1 h 35 min
Bit rate : 35.2 kb/s
Count of elements : 2498
Stream size : 24.0 MiB (0%)
Title : Eng (Full)
Language : English
Default : No
Forced : No

Text #2
ID : 9
Format : PGS
Muxing mode : zlib
Codec ID : S_HDMV/PGS
Codec ID/Info : Picture based subtitle format used on BDs/HD-DVDs
Duration : 1 h 39 min
Bit rate : 29.9 kb/s
Count of elements : 3277
Stream size : 21.3 MiB (0%)
Title : Eng (SDH)
Language : English
Default : No
Forced : No
Скріншоти
Джерело: &
За запис з ICTV дякую п. Neytreenor та п. РОМЕО
За запис з amc дякую п. slavik_v_z
За доріжку від Інтер дякую п. Lan та п. dbdeveloper
Окрема подяка п. Arsenfpu
Особиста оцінка: 8 - мені сподобалося


Золотий реліз (завантажене не впливає на рейтинг)
 Трекер:    Зареєстрований   

Завантажити / скачати фільм українською



відео для новачків



 Зареєстрований:   2019-11-05 00:39
 Розмір:   18 GB 
 Оцінка фільму:   9.8/10 (Голосів: 13)
   
Інші релізи
Custo 12 
Свій


З нами з: 08.11.16
Востаннє: 21.09.20
Повідомлень: 148

2019-11-08 17:31  
Затер плівку на касєті (відіво). Клясіка, фіглі тут ще скажеш
Ваш часовий пояс: GMT + 2 Години

Нова тема   Відповісти