Еббі Хетчер / Abby Hatcher (Сезон 1, 12 серій з 26) (2019) 1080p

Нові коментарі

Нова тема   Відповісти
Автор Повідомлення
sergiyko.5 
Забанено
Забанено


З нами з: 25.02.16
Востаннє: 29.10.20
Повідомлень: 3648

2019-11-04 23:01  
Еббі Хетчер / Abby Hatcher (Сезон 1) (2019) 1080p


Еббі Хетчер / Abby Hatcher (Сезон 1, 12 серій з 26) (2019) 1080p

Жанр: пригоди, сімейний
Країна: США
Кінокомпанія: Spin Master Studios
Режисер: Кіран Келлі

Сюжет:
Еббі Хетчер - ловець пухнастиків. У неї є вірний друг - кролик Бозлі. Сьогодні шеф-кухар Джек грав на тубі разом із пухнастими пискавками. Раптово крихітка До кудись зникла, а інші пискавки почали панікувати. Вони завжди повинні бути разом, тому якщо хтось зникає, вони шаленіють.




Тривалість: 1 серія: 22:00 (цілком серій: 12 з 26)
Якість:

Відео: кодек: розмір кадру: 1920 х 1080 бітрейт: 4300 кб/с
Аудіо: мова: українська переклад: професійний дубльований кодек: 2.0 бітрейт: 192 кб/с [Stereo]
Озвучення:

Примітка: українська доріжка записана з супутникової трансляції і синхронізована під HD відео, звук не розтягувався і не змінювався тон.
Перелік серій
01 Еббі та переполох пискавок / Невгамовний нічний дзвін
02 Квіткова композиція принцеси Флаг / Шоу талантів для пухнастиків
03 Надто втомлені для туби / День принцеси Флаг
04 Пухнастик-перукарка / Пухнастики на горищі
05 Бозлі тільки один / Кузина Флагтильда
06 Шеф-пружинка / Острах котів
11 Подарунок малюка Террі

У Лекса і Террі великий список завдань на день: полагодити лійку Міранди, полагодити дверні петлі на кухні, замінити наповнювач та зашити диванну подушку. Але найголовніше – пофарбувати кімнату Еббі. Однак вона досі не визначилась із кольором.

Блюз пискавок

Суддя Торн – дуже вибаглива, але Еббі та пискавки хочуть вразити її щасливою феєричною піснею. Однак саме у день виступу пискавки не виспалися, бо їхня постіль кудись зникла. Невже вони приречені на провал?

12 Таємна дискотека у підвалі

Еббі, пухнастики, пискавки – усі люблять танцювати. І навіть Геррієт. Проте її танці відрізняються від інших: вона любить танцювати наодинці, бо соромиться, коли її хтось бачить. Як Еббі та Бозлі допоможуть Геррієт почувати себе впевненішою на публіці?

Роздратований пухнастик

Еббі та Бозлі вирішили провести феєричний день у СПА, щоб розслабитись та відпочити. Однак не встигнув дістатись до салону, Бозлі почало дратувати абсолютно усе: ліфт, що зупинявся на кожному поверсі, Еббі, яка забула взяти закуски, і т. д. Що вигадає Еббі, щоб вгамувати його роздратування?
Про файл:
General
Unique ID : 98013487900596972162805398852173628512 (0x49BCB60CA04A91E630CDCE928F190460)
Complete name : D:\Documents\Torrents\MULTSER\Abby Hatcher S01 1080p \S01E01.Abby's Squeaky Peeper Panic-Things That Go Ding in the Night.1080p..
Format :
Format version : Version 4
File size : 717 MiB
Duration : 22 min 7 s
Overall bit rate : 4 531 kb/s
Movie name : rip by sergiyko
Encoded date : UTC 2019-11-04 19:51:24
Writing application : v38.0.0 ('The Silent Type') 64-bit
Writing library : libebml v1.3.9 + v1.5.2

Video
ID : 1
Format : AVC
Format/Info : Advanced Video Codec
Format profile : [email protected]
Format settings : CABAC / 7 Ref Frames
Format settings, CABAC : Yes
Format settings, Reference : 7 frames
Codec ID : V_MPEG4/ISO/AVC
Duration : 22 min 7 s
Bit rate : 4 337 kb/s
Width : 1 920 pixels
Height : 1 080 pixels
Display aspect ratio : 16:9
Frame rate mode : Constant
Frame rate : 25.000 FPS
Color space : YUV
Chroma subsampling : 4:2:0
Bit depth : 8 bits
Scan type : Progressive
Bits/(Pixel*Frame) : 0.084
Stream size : 686 MiB (96%)
Title : S01E01.Abby's Squeaky Peeper Panic-Things That Go Ding in the Night
Writing library : core 157 r2969 d4099dd
Encoding settings : cabac=1 / ref=7 / deblock=1:-1:-1 / analyse=0x3:0x133 / me=umh / subme=9 / psy=1 / psy_rd=0.40:0.00 / mixed_ref=1 / me_range=24 / chroma_me=1 / trellis=2 / 8x8dct=1 / cqm=0 / deadzone=21,11 / fast_pskip=1 / chroma_qp_offset=-2 / threads=24 / lookahead_threads=2 / sliced_threads=0 / nr=0 / decimate=1 / interlaced=0 / bluray_compat=0 / constrained_intra=0 / bframes=5 / b_pyramid=2 / b_adapt=2 / b_bias=0 / direct=1 / weightb=1 / open_gop=0 / weightp=2 / keyint=250 / keyint_min=25 / scenecut=40 / intra_refresh=0 / rc_lookahead=60 / rc=crf / mbtree=1 / crf=19.0 / qcomp=0.70 / qpmin=0 / qpmax=69 / qpstep=4 / ip_ratio=1.40 / aq=1:0.60
Language : English
Default : Yes
Forced : No

Audio
ID : 2
Format : AC-3
Format/Info : Audio Coding 3
Commercial name : Dolby Digital
Codec ID : A_AC3
Duration : 22 min 7 s
Bit rate mode : Constant
Bit rate : 192 kb/s
Channel(s) : 2 channels
Channel layout : L R
Sampling rate : 48.0 kHz
Frame rate : 31.250 FPS (1536 SPF)
Bit depth : 16 bits
Compression mode : Lossy
Stream size : 30.4 MiB (4%)
Title : DUB 2ch | ПлюсПлюс
Language : Ukrainian
Service kind : Complete Main
Default : Yes
Forced : No
Скріншоти:


Автор релізу: sergiyko


Бронзовий реліз (на рейтинг впливає 75% завантаженого)
 Трекер:    Зареєстрований   

Завантажити / скачати мультфільм українською



відео для новачків



 Зареєстрований:   2019-12-19 18:57
 Розмір:   9.32 GB 
 Оцінка мультсеріалу:   9.9/10 (Голосів: 12)
   
sergiyko.5 
Забанено
Забанено


З нами з: 25.02.16
Востаннє: 29.10.20
Повідомлень: 3648

2019-11-18 15:39  
Додав 3-6 серії.
sergiyko.5 
Забанено
Забанено


З нами з: 25.02.16
Востаннє: 29.10.20
Повідомлень: 3648

2019-12-19 18:59  
Додав 7-12 серії.
Andruxa85 
Новенький


З нами з: 21.01.20
Востаннє: 22.04.21
Повідомлень: 19

2020-06-04 11:53  
Доброго дня, а продовження не буде?
sergiyko.5 
Забанено
Забанено


З нами з: 25.02.16
Востаннє: 29.10.20
Повідомлень: 3648

2020-06-04 12:13  
Andruxa85 написано:
Доброго дня, а продовження не буде?

Нових серій канал не транслював.

Andruxa85 
Новенький


З нами з: 21.01.20
Востаннє: 22.04.21
Повідомлень: 19

2020-06-04 12:58  
sergiyko.5
Зараз щось показують по Nick Jr Україна

sergiyko.5 
Забанено
Забанено


З нами з: 25.02.16
Востаннє: 29.10.20
Повідомлень: 3648

2020-06-04 13:07  
Добре. Нехай щось показують.
dimaboguhinsky 
Новенький


З нами з: 13.02.20
Востаннє: 21.04.21
Повідомлень: 8

2020-11-22 22:37  
Коли це знову покажуть на Плюсплюс.
ПБВ2309 
Свій


З нами з: 29.11.16
Востаннє: 22.04.21
Повідомлень: 78

2020-11-23 18:51  
dimaboguhinsky
З 7 грудня

dimaboguhinsky 
Новенький


З нами з: 13.02.20
Востаннє: 21.04.21
Повідомлень: 8

2021-03-30 21:01  
Обновіть торрент, всі серії 1-го сезону у дубляжі завершено.
Altron320 
Поважний учасник


З нами з: 08.05.20
Востаннє: 23.04.21
Повідомлень: 224

2021-03-30 23:14  
Автора релізу забанили.
dimaboguhinsky 
Новенький


З нами з: 13.02.20
Востаннє: 21.04.21
Повідомлень: 8

2021-04-07 22:47  
Додайте 13-26 серії.
Ваш часовий пояс: GMT + 2 Години

Нова тема   Відповісти