Вторгнення чужинців / Alien Raiders (2008) 720p Ukr/Eng | Sub Eng

Нові коментарі

Нова тема   Відповісти
Останній раз роздавалося Kakoola (2019-12-07)
Автор Повідомлення
Anonymous 







2019-11-04 22:29  
Вторгнення чужинців / Alien Raiders (2008) 720p Ukr/Eng | Sub Eng

Вторгнення чужинців / Alien Raiders (2008) 720p Ukr/Eng | Sub Eng


Жанр: жахи, фантастика
Країна: США
Кінокомпанія: Warner Home Video, Raw Feed, Flame Ventures
Режисер: Бен Рок / Ben Rock
Актори: Карлос Бернард / Carlos Bernard, Рокмонд Данбар / Rockmond Dunbar, Метью Патрік-старший / Mathew St. Patrick, Кортні Форд / Courtney Ford, Том Кейче / Tom Kiesche, Джоел МакКрай / Joel McCrary, Брайан Крейснер / Bryan Krasner, Боніта Фрідерсі / Bonita Friedericy та інші

Сюжет:
Вечірня зміна в супермаркеті «Хастінгс" - що в Бак Лейк, штат Арізона. Але нормальна монотонна діяльність закладу розбивається в 11:07 вечора, незадовго до закриття, коли група озброєних до зубів бойовиків вторгається в магазин, відразу убивши декількох працівників і покупців захоплює інших в заручники.

Хоча захоплення на перший погляд як у грабіжників або терористів, вони показують, що вони є вченими-ізгоями, які виявили гусеничних чужорідних шкідників в цьому магазині. У цю ніч, і вони повні рішучості з'ясувати, в кого з тих, що вижили вселилася інопланетна субстанція і знищити вторгнення за всяку ціну.

Тривалість: 01:25:06
Якість:

Відео:
кодек:
розмір кадру: 1280 x 546
бітрейт: 5 592 кб/с

Аудіо # 1:
мова: українська
переклад: багатоголосий закадровий
кодек: AC-3 2.0
бітрейт: 192 кб/с

Аудіо # 2:
мова: англійська
переклад: оригінал
кодек: E-AC-3 5.1
бітрейт: 640 кб/с

Субтитри # 1: (SDH)
мова: англійська
тип: програмні (м'які)
формат: *.srt


Info
Код:
General
Unique ID                                : 97205936928857376677087201951126424360 (0x49212EB6607B37F51DD0224408108B28)
Complete name                            : Alien Raiders (2008) 720p [UKR_ENG] [Hurtom].
Format                                   :
Format version                           : Version 4
File size                                : 3.82 GiB
Duration                                 : 1 h 25 min
Overall bit rate                         : 6 426 kb/s
Movie name                               : Вторгнення чужинців / Alien Raiders (2008)
Encoded date                             : UTC 2019-11-04 19:13:10
Writing application                      : v20.0.0 ('I Am The Sun') 64-bit
Writing library                          : libebml v1.3.5 + v1.4.8
Cover                                    : Yes
Attachments                              : Cover.jpg

Video
ID                                       : 1
Format                                   : AVC
Format/Info                              : Advanced Video Codec
Format profile                           : [email protected]
Format settings                          : CABAC / 11 Ref Frames
Format settings, CABAC                   : Yes
Format settings, Reference frames        : 11 frames
Codec ID                                 : V_MPEG4/ISO/AVC
Duration                                 : 1 h 25 min
Bit rate                                 : 5 592 kb/s
Width                                    : 1 280 pixels
Height                                   : 546 pixels
Display aspect ratio                     : 2.35:1
Frame rate mode                          : Constant
Frame rate                               : 23.976 (24000/1001) FPS
Color space                              : YUV
Chroma subsampling                       : 4:2:0
Bit depth                                : 8 bits
Scan type                                : Progressive
Bits/(Pixel*Frame)                       : 0.334
Stream size                              : 3.32 GiB (87%)
Title                                    : Вторгнення чужинців / Alien Raiders (2008)
Writing library                          : core 158 r2984 3759fcb
Encoding settings                        : cabac=1 / ref=11 / deblock=1:-3:-3 / analyse=0x3:0x133 / me=umh / subme=11 / psy=1 / psy_rd=1.00:0.00 / mixed_ref=1 / me_range=32 / chroma_me=1 / trellis=2 / 8x8dct=1 / cqm=0 / deadzone=21,11 / fast_pskip=0 / chroma_qp_offset=-2 / threads=12 / lookahead_threads=3 / sliced_threads=0 / nr=0 / decimate=0 / interlaced=0 / bluray_compat=0 / constrained_intra=0 / bframes=12 / b_pyramid=2 / b_adapt=2 / b_bias=0 / direct=1 / weightb=1 / open_gop=0 / weightp=2 / keyint=240 / keyint_min=23 / scenecut=40 / intra_refresh=0 / rc_lookahead=60 / rc=crf / mbtree=0 / crf=18.0 / qcomp=0.70 / qpmin=0 / qpmax=69 / qpstep=4 / vbv_maxrate=50000 / vbv_bufsize=62500 / crf_max=0.0 / nal_hrd=none / filler=0 / ip_ratio=1.30 / pb_ratio=1.30 / aq=3:0.90
Language                                 : English
Default                                  : Yes
Forced                                   : No
Color range                              : Limited
Color primaries                          : BT.709
Transfer characteristics                 : BT.709
Matrix coefficients                      : BT.709

Audio #1
ID                                       : 2
Format                                   : AC-3
Format/Info                              : Audio Coding 3
Commercial name                          : Dolby Digital
Codec ID                                 : A_AC3
Duration                                 : 1 h 25 min
Bit rate mode                            : Constant
Bit rate                                 : 192 kb/s
Channel(s)                               : 2 channels
Channel layout                           : L R
Sampling rate                            : 48.0 kHz
Frame rate                               : 31.250 FPS (1536 SPF)
Bit depth                                : 16 bits
Compression mode                         : Lossy
Delay relative to video                  : 24 ms
Stream size                              : 117 MiB (3%)
Title                                    : / 2.0 Ch / 192 kbps / БЗ / ICTV
Language                                 : Ukrainian
Service kind                             : Complete Main
Default                                  : Yes
Forced                                   : Yes

Audio #2
ID                                       : 3
Format                                   : E-AC-3
Format/Info                              : Enhanced AC-3
Commercial name                          : Dolby Digital Plus
Codec ID                                 : A_EAC3
Duration                                 : 1 h 25 min
Bit rate mode                            : Constant
Bit rate                                 : 640 kb/s
Channel(s)                               : 6 channels
Channel layout                           : L R C LFE Ls Rs
Sampling rate                            : 48.0 kHz
Frame rate                               : 31.250 FPS (1536 SPF)
Compression mode                         : Lossy
Stream size                              : 390 MiB (10%)
Title                                    : E- / 5.1 Ch / 640 kbps / Original
Language                                 : English
Service kind                             : Complete Main
Default                                  : No
Forced                                   : No

Text
ID                                       : 4
Format                                   : UTF-8
Codec ID                                 : S_TEXT/UTF8
Codec ID/Info                            : UTF-8 Plain Text
Duration                                 : 1 h 24 min
Bit rate                                 : 60 b/s
Count of elements                        : 1438
Stream size                              : 37.6 KiB (0%)
Title                                    : SDH
Language                                 : English
Default                                  : No
Forced                                   : No
Світлини




Джерело: &
Особиста оцінка: 0 - не дивився


 Трекер:    Зареєстрований   

Завантажити / скачати фільм українською



відео для новачків



 Зареєстрований:   2019-11-04 22:29
 Розмір:   3.82 GB 
 Оцінка фільму:   10/10 (Голосів: 1)
   
Інші релізи
Ваш часовий пояс: GMT + 2 Години

Нова тема   Відповісти