Заради всього людства (Сезон 1) / For All Mankind (Season 1) (2019) 720p Eng | Sub Ukr/Eng

Нові коментарі

Нова тема   Відповісти
Автор Повідомлення
Anonymous 







2019-11-04 13:56  
Заради всього людства (Сезон 1) / For All Mankind (Season 1) (2019) 720p Eng | Sub Ukr/Eng

Заради всього людства (Сезон 1) / For All Mankind (Season 1) (2019) 720p Eng | Sub Ukr/Eng


Жанр: драма, наукова фантастика
Країна: США



Кінокомпанія: Sony Pictures Television, Tall Ship Productions
Актори: Джоел Кіннаман, Шантель Вансантен, Сара Джонс, Майкл Дорман, Джоді Балфур.

Сюжет:
Уявіть собі світ, де космічні перегони так і не закінчилися. У такому варіанті розвитку історії розповідається про життя астронавтів НАСА - героїв і зірок свого часу - та їхніх сімей.


Тривалість: 1 серія: 01:05:07 (цілком серій: 10 з 10)
Перелік серій
1. Червоний місяць / Red Moon
2. Він збудував "Сатурн-5" / He Built The Saturn V
3. Жінки Ніксона / Nixon's Women
4. Основний екіпаж / Prime Crew
5. У безодню / Into the Abyss
6. Знову вдома / Home Again
7. Привіт, Бобе / Hi Bob
8. Розрив / Rupture
9. Поранений птах / Bent Bird
10. Місто на пагорбі / A City Upon a Hill
Якість:
Відео:
кодек:
розмір кадру: 1356 х 678
бітрейт: 3940 кб/с

Аудіо:
мова: англійська
переклад: оригінал
кодек: 5.1
бітрейт: 384 кб/с

Субтитри:
мова: українська
тип: програмні (м'які)
формат: *.srt

Субтитри:
мова: англійська
тип: програмні (м'які)
формат: *.srt
Info
Video
ID : 1
Format : AVC
Format/Info : Advanced Video Codec
Format profile : [email protected]
Format settings : CABAC / 5 Ref Frames
Format settings, CABAC : Yes
Format settings, Reference : 5 frames
Codec ID : V_MPEG4/ISO/AVC
Duration : 1 h 5 min
Bit rate : 3 940 kb/s
Width : 1 356 pixels
Height : 678 pixels
Display aspect ratio : 2.000
Frame rate mode : Constant
Frame rate : 23.976 (24000/1001) FPS
Color space : YUV
Chroma subsampling : 4:2:0
Bit depth : 8 bits
Scan type : Progressive
Bits/(Pixel*Frame) : 0.179
Stream size : 1.79 GiB (91%)
Language : English
Default : Yes
Forced : No
Color range : Limited
Color primaries : BT.709
Transfer characteristics : BT.709
Matrix coefficients : BT.709

Audio
ID : 2
Format : AC-3
Format/Info : Audio Coding 3
Commercial name : Dolby Digital
Codec ID : A_AC3
Duration : 1 h 5 min
Bit rate mode : Constant
Bit rate : 384 kb/s
Channel(s) : 6 channels
Channel layout : L R C LFE Ls Rs
Sampling rate : 48.0 kHz
Frame rate : 31.250 FPS (1536 SPF)
Compression mode : Lossy
Stream size : 179 MiB (9%)
Language : English
Service kind : Complete Main
Default : Yes
Forced : No

Text #1
ID : 3
Format : UTF-8
Codec ID : S_TEXT/UTF8
Codec ID/Info : UTF-8 Plain Text
Duration : 1 h 4 min
Bit rate : 99 b/s
Count of elements : 917
Stream size : 47.5 KiB (0%)
Language : Ukrainian
Default : Yes
Forced : No

Text #2
ID : 4
Format : UTF-8
Codec ID : S_TEXT/UTF8
Codec ID/Info : UTF-8 Plain Text
Duration : 1 h 3 min
Bit rate : 73 b/s
Count of elements : 967
Stream size : 34.6 KiB (0%)
Title : English
Language : English
Default : No
Forced : No
Скріншоти















Джерело: &
Особиста оцінка: 10 - без зайвих вагань рекомендую всім!


Бронзовий реліз (на рейтинг впливає 75% завантаженого)
 Трекер:    Зареєстрований   

Завантажити / скачати серіал українською



відео для новачків



 Зареєстрований:   2019-12-20 13:46
 Розмір:   16.49 GB 
 Оцінка серіалу:   9.9/10 (Голосів: 30)
   
Anonymous 







2019-12-07 00:19  
додав 8 серію
Anonymous 







2019-12-13 17:16  
+ 9 серія
HELLOHAOS 
Свій


З нами з: 13.02.09
Востаннє: 22.11.20
Повідомлень: 75

2019-12-14 12:27  
А серіал то стає все цікавішим і цікавішим.
Anonymous 







2019-12-20 13:47  
+ 10 серія. повний сезон.
helm2004 
Частий відвідувач


З нами з: 18.11.08
Востаннє: 21.11.20
Повідомлень: 37

2019-12-21 13:23  
Тримайте - це пробіли, які Ви забулись поставить Happy Але за роботу дякую!
Anonymous 







2019-12-21 14:01  
helm2004
Які і де ?

igor911 
Модератор відео


З нами з: 18.01.08
Востаннє: 28.11.20
Повідомлень: 15083

2019-12-21 14:42  
Цитата:
Які і де ?
Приклад, 9а серія:

Цитата:
1
00:00:10,219 --> 00:00:14,598
<i>Повертаймося до репортажупро першу пілотовану місію НАСА</i>
...
3
00:00:18,268 --> 00:00:22,606
<i>Дві з половиною години томуз мису Кеннеді запущено «Аполлон-24»,</i>
...
7
00:00:34,368 --> 00:00:38,080
<i>для виходу на так званутрансмісячну орбіту, або ТМО,</i>

8
00:00:38,163 --> 00:00:41,333
<i>яка виведе астронавтівВілсон, Лю і Слейтона</i>

Anonymous 







2019-12-21 14:57  
igor911
Ааа, ну я ще далі 7 не дивився. А коли прибирав зайві субтитри і перевіряв у кількох місця на серію то на таке не попадав. Звісно вони не дуже приємно, але мабуть нема сенсу оновлювати вже.

igor911 
Модератор відео


З нами з: 18.01.08
Востаннє: 28.11.20
Повідомлень: 15083

2019-12-21 15:00  
Anonymous, бачив таке в інших сабах з ATV+ (Truth Be Told), схоже щось сталось з форматуванням переносу стрічки.
don pedro 
Попереджень: 1
Попереджень: 1 


З нами з: 29.06.11
Востаннє: 28.11.20
Повідомлень: 18190

2020-02-05 00:54  
Розкішний серіал про космос, історію, і не тільки.
А от українські субтитри знову (як і в "Ранковому шоу"), хоч і дуже якісні, цензуровані та спрощені. Для чого це робити у випадку серіалу для цілком дорослого глядача- не збагну. Я прямо бачу тих дітей, що сидять і дивляться з українськими субтитрами серіал про альтернативну історію американської космічної програми шістдесятих років минулого сторіччя.

alex2 
Поважний учасник


З нами з: 01.02.12
Востаннє: 27.11.20
Повідомлень: 191

2020-02-06 17:21  
сподобалося, якісна картинка, хороша фізика.

Кіннаман гарно і тут підійшов)

DanyZemlyanoy 
Відео Гуртом - дизайнер
Відео Гуртом - дизайнер


З нами з: 02.07.16
Востаннє: 26.11.20
Повідомлень: 58

2020-03-23 16:06  
Хочу підвести всі проекти від Apple TV+ під один шаблон, тому тримайте більш якісний постер:
Заради всього людства (Сезон 1) / For All Mankind (Season 1) (2019)

Ваш часовий пояс: GMT + 2 Години

Нова тема   Відповісти