Зевс і Роксана / Zeus and Roxanne (1997) 1080p Ukr/Eng | Sub Eng

Нові коментарі

Нова тема   Відповісти
Останній раз роздавалося mavitya (2020-09-27)
Автор Повідомлення
Anonymous 







2019-11-04 11:56  
Зевс і Роксана / Zeus and Roxanne (1997) 1080p Ukr/Eng | Sub Eng

Зевс і Роксана / Zeus and Roxanne (1997) 1080p Ukr/Eng | Sub Eng


Жанр: мелодрама, комедія, сімейний, пригодницький
Країна: США
Кінокомпанія: Metro-Goldwyn-Mayer (MGM), Rysher Entertainment
Режисер: Джордж Мілер
Актори: Стів Ґутенберґ, Арнольд Вослу, Маджандра Делфіно

Сюжет:
Террі Барнетт пише музику на березі океану, де живе в маленькому містечку з сином і милим смішним песиком, якого звуть Зевс. Зевс - страшний пустун, і його за це не любить сусідка Мері Бет, називаючи блохастим і переносячи свою неприязнь на власників. Вона живе з двома доньками і займається вивченням поведінки дельфінів. Зевс проникає на борт її судна і падає у воду, де багато-багато диких акул! Рятує його від зубастих хижаків розумний і добрий дельфін Роксана. Зевс та Роксана, звичайно ж, стають кращими друзями, а їх дружба, або "міжвидове спілкування", як це називає симпатична вчена, зближує обидві сім'ї.

Тривалість: 01:38:09
Якість:

Відео:
кодек:
розмір кадру: 1920 x 1080
бітрейт: 12 392 кб/с

Аудіо # 1:
мова: українська
переклад: двоголосий закадровий
кодек: AC-3 2.0
бітрейт: 192 кб/с

Аудіо # 2:
мова: англійська
переклад: оригінал
кодек: E-AC-3 2.0
бітрейт: 224 кб/с

Субтитри # 1-2: (Full, SDH)
мова: англійська
тип: програмні (м'які)
формат: *.srt


Info
Код:
General
Unique ID                                : 105378155486826840157614925998500535627 (0x4F4718320BB59EB1288046E2D71ADD4B)
Complete name                            : Zeus and Roxanne (1997) 1080p [UKR_ENG] [Hurtom].
Format                                   :
Format version                           : Version 4
File size                                : 8.78 GiB
Duration                                 : 1 h 38 min
Overall bit rate mode                    : Variable
Overall bit rate                         : 12.8 Mb/s
Movie name                               : Зевс і Роксана / Zeus and Roxanne (1997)
Encoded date                             : UTC 2019-11-03 22:45:42
Writing application                      : v20.0.0 ('I Am The Sun') 64-bit
Writing library                          : libebml v1.3.5 + v1.4.8
Cover                                    : Yes
Attachments                              : Cover.jpg

Video
ID                                       : 1
Format                                   : AVC
Format/Info                              : Advanced Video Codec
Format profile                           : [email protected]
Format settings                          : CABAC / 4 Ref Frames
Format settings, CABAC                   : Yes
Format settings, Reference frames        : 4 frames
Codec ID                                 : V_MPEG4/ISO/AVC
Duration                                 : 1 h 38 min
Bit rate mode                            : Variable
Bit rate                                 : 12.4 Mb/s
Maximum bit rate                         : 15.0 Mb/s
Width                                    : 1 920 pixels
Height                                   : 1 080 pixels
Display aspect ratio                     : 16:9
Frame rate mode                          : Constant
Frame rate                               : 23.976 (24000/1001) FPS
Color space                              : YUV
Chroma subsampling                       : 4:2:0
Bit depth                                : 8 bits
Scan type                                : Progressive
Bits/(Pixel*Frame)                       : 0.249
Stream size                              : 8.50 GiB (97%)
Title                                    : Зевс і Роксана / Zeus and Roxanne (1997)
Writing library                          : core 148 r2623 d5b2374
Encoding settings                        : cabac=1 / ref=4 / deblock=1:-1:-1 / analyse=0x3:0x133 / me=umh / subme=9 / psy=1 / psy_rd=1.00:0.15 / mixed_ref=1 / me_range=24 / chroma_me=1 / trellis=2 / 8x8dct=1 / cqm=0 / deadzone=21,11 / fast_pskip=1 / chroma_qp_offset=-3 / threads=34 / lookahead_threads=5 / sliced_threads=0 / nr=150 / decimate=1 / interlaced=0 / bluray_compat=0 / constrained_intra=0 / bframes=8 / b_pyramid=2 / b_adapt=2 / b_bias=0 / direct=3 / weightb=1 / open_gop=0 / weightp=2 / keyint=120 / keyint_min=61 / scenecut=0 / intra_refresh=0 / rc_lookahead=120 / rc=crf / mbtree=1 / crf=18.0 / qcomp=0.60 / qpmin=0 / qpmax=69 / qpstep=4 / vbv_maxrate=15000 / vbv_bufsize=31250 / crf_max=0.0 / nal_hrd=vbr / filler=0 / ip_ratio=1.40 / aq=3:1.00
Language                                 : English
Default                                  : Yes
Forced                                   : No
Color range                              : Limited
Color primaries                          : BT.709
Transfer characteristics                 : BT.709
Matrix coefficients                      : BT.709

Audio #1
ID                                       : 2
Format                                   : AC-3
Format/Info                              : Audio Coding 3
Commercial name                          : Dolby Digital
Codec ID                                 : A_AC3
Duration                                 : 1 h 38 min
Bit rate mode                            : Constant
Bit rate                                 : 192 kb/s
Channel(s)                               : 2 channels
Channel layout                           : L R
Sampling rate                            : 48.0 kHz
Frame rate                               : 31.250 FPS (1536 SPF)
Bit depth                                : 16 bits
Compression mode                         : Lossy
Stream size                              : 135 MiB (1%)
Title                                    : / 2.0 Ch / 192 kbps / ДЗ / K1
Language                                 : Ukrainian
Service kind                             : Complete Main
Default                                  : Yes
Forced                                   : Yes

Audio #2
ID                                       : 3
Format                                   : E-AC-3
Format/Info                              : Enhanced AC-3
Commercial name                          : Dolby Digital Plus
Codec ID                                 : A_EAC3
Duration                                 : 1 h 38 min
Bit rate mode                            : Constant
Bit rate                                 : 224 kb/s
Channel(s)                               : 2 channels
Channel layout                           : L R
Sampling rate                            : 48.0 kHz
Frame rate                               : 31.250 FPS (1536 SPF)
Compression mode                         : Lossy
Stream size                              : 157 MiB (2%)
Title                                    : E- / 2.0 Ch / 224 kbps / Original
Language                                 : English
Service kind                             : Complete Main
Default                                  : No
Forced                                   : No

Text #1
ID                                       : 4
Format                                   : UTF-8
Codec ID                                 : S_TEXT/UTF8
Codec ID/Info                            : UTF-8 Plain Text
Duration                                 : 1 h 31 min
Bit rate                                 : 32 b/s
Count of elements                        : 1010
Stream size                              : 21.8 KiB (0%)
Title                                    : Full
Language                                 : English
Default                                  : No
Forced                                   : No

Text #2
ID                                       : 5
Format                                   : UTF-8
Codec ID                                 : S_TEXT/UTF8
Codec ID/Info                            : UTF-8 Plain Text
Duration                                 : 1 h 31 min
Bit rate                                 : 33 b/s
Count of elements                        : 1031
Stream size                              : 22.7 KiB (0%)
Title                                    : SDH
Language                                 : English
Default                                  : No
Forced                                   : No

Menu
00:00:00.000                             : en:01. Openining Credits
00:03:39.212                             : en:02. Like Cat And Dog
00:10:26.952                             : en:03. Zeus And Roxanne Meet
00:17:16.320                             : en:04. An Unusual Drowning Crearure
00:24:00.265                             : en:05. Caught In The Act
00:30:01.918                             : en:06. Competition For The Grant
00:45:16.623                             : en:07. Zeus Is Watching
00:49:26.581                             : en:08. Inter-Species Communication
00:53:01.296                             : en:09. Pairing Off Is An Art
00:57:01.494                             : en:10. Terry And Jordan Are Leaving
01:02:53.387                             : en:11. Zeus And Roxanne miss each Other
01:13:59.761                             : en:12. A Dog As Bait
01:18:58.518                             : en:13. Submarine In Trouble
01:23:20.947                             : en:14. Roxanne Shows The Wey
01:33:28.220                             : en:15. End Credits
Світлини




Джерело: &
Особиста оцінка: 0 - не дивився


Срібний реліз (на рейтинг впливає 50% завантаженого)
 Трекер:    Зареєстрований   

Завантажити / скачати фільм українською



відео для новачків



 Зареєстрований:   2019-11-04 11:56
 Розмір:   8.78 GB 
 Оцінка фільму:   9/10 (Голосів: 2)
   
Інші релізи
   Зевс і Роксана / Zeus and Roxanne (1997) 720p Ukr/Eng | Sub Eng drop_plz  2 / 0   3.16 GB   2018-09-07 12:01 
   Зевс і Роксана / Zeus and Roxanne (1997) Ukr/Eng taraskill1  2 / 0   1.48 GB   2014-08-18 12:06 
Ваш часовий пояс: GMT + 2 Години

Нова тема   Відповісти