Вид згори кращий / View from the Top (2003) 720p 2xUkr/Eng | Sub Eng

Нові коментарі

Нова тема   Відповісти
Останній раз роздавалося Unbif (2020-05-27)
Автор Повідомлення
Anonymous 







2019-11-04 11:53  
Вид згори кращий / View from the Top (2003) 720p 2xUkr/Eng | Sub Eng

Вид згори кращий / View from the Top (2003) 720p 2xUkr/Eng | Sub Eng


Жанр: комедія, романтичний
Країна: США
Кінокомпанія: Miramax Films, Brad Grey Pictures, Cohen Productions
Режисер: Бруно Баретто
Актори: Гвінет Пелтроу, Крістіна Еплгейт, Марк Руффало, Кендіс Берген, Джошуа Маліна, Келлі Престон, Роб Лоу, Майк Маєрс, Марк Блукас, Стейсі Деш, Джон Політо, Робін Петерсон

Сюжет:
Провінціалка Донна втікає з дому, щоб стати стюардесою міжнародних авіаліній. У Парижі - модне вбрання, в Маямі - море ... Але все це ще далеко, а земля вже йде з під ніг! Ну що, вид згори краще, Донна? І не шукай відповідь в очах інструктора! А краще розбуди пілота ...


Тривалість: 01:27:10
Якість:

Відео:
кодек:
розмір кадру: 1280 x 542
бітрейт: 4 125 кб/с

Аудіо # 1:
мова: українська
переклад: багатоголосий закадровий
кодек: AC-3 2.0
бітрейт: 192 кб/с

Аудіо # 2:
мова: українська
переклад: багатоголосий закадровий
кодек: AC-3 2.0
бітрейт: 192 кб/с

Аудіо # 3:
мова: англійська
переклад: оригінал
кодек: AC-3 5.1
бітрейт: 384 кб/с

Субтитри # 1: (SDH)
мова: англійська
тип: програмні (м'які)
формат: *.srt


Info
Код:
General
Unique ID                                : 72705254333852049712772047404961455194 (0x36B285CBF8536896FF8A9B1A813D5C5A)
Complete name                           :  View from the Top (2003) 720p [2xUKR_ENG] [Hurtom].
Format                                   :
Format version                           : Version 4
File size                                : 2.98 GiB
Duration                                 : 1 h 27 min
Overall bit rate                         : 4 895 kb/s
Movie name                               : Вид згори кращий / View from the Top (2003)
Encoded date                             : UTC 2019-11-03 22:19:44
Writing application                      : v20.0.0 ('I Am The Sun') 64-bit
Writing library                          : libebml v1.3.5 + v1.4.8
Cover                                    : Yes
Attachments                              : Cover.jpg

Video
ID                                       : 1
Format                                   : AVC
Format/Info                              : Advanced Video Codec
Format profile                           : [email protected]
Format settings                          : 2 Ref Frames
Format settings, CABAC                   : No
Format settings, Reference frames        : 2 frames
Codec ID                                 : V_MPEG4/ISO/AVC
Duration                                 : 1 h 27 min
Bit rate                                 : 4 125 kb/s
Width                                    : 1 280 pixels
Height                                   : 542 pixels
Display aspect ratio                     : 2.35:1
Frame rate mode                          : Constant
Frame rate                               : 23.976 (23976/1000) FPS
Color space                              : YUV
Chroma subsampling                       : 4:2:0
Bit depth                                : 8 bits
Scan type                                : Progressive
Bits/(Pixel*Frame)                       : 0.248
Stream size                              : 2.51 GiB (84%)
Title                                    : Вид згори кращий / View from the Top (2003)
Language                                 : English
Default                                  : Yes
Forced                                   : No
Color range                              : Limited
Color primaries                          : BT.709
Transfer characteristics                 : BT.709
Matrix coefficients                      : BT.709

Audio #1
ID                                       : 2
Format                                   : AC-3
Format/Info                              : Audio Coding 3
Commercial name                          : Dolby Digital
Codec ID                                 : A_AC3
Duration                                 : 1 h 27 min
Bit rate mode                            : Constant
Bit rate                                 : 192 kb/s
Channel(s)                               : 2 channels
Channel layout                           : L R
Sampling rate                            : 48.0 kHz
Frame rate                               : 31.250 FPS (1536 SPF)
Bit depth                                : 16 bits
Compression mode                         : Lossy
Stream size                              : 120 MiB (4%)
Title                                    : / 2.0 Ch / 192 kbps / БЗ / Inter
Language                                 : Ukrainian
Service kind                             : Complete Main
Default                                  : Yes
Forced                                   : Yes

Audio #2
ID                                       : 3
Format                                   : AC-3
Format/Info                              : Audio Coding 3
Commercial name                          : Dolby Digital
Codec ID                                 : A_AC3
Duration                                 : 1 h 27 min
Bit rate mode                            : Constant
Bit rate                                 : 192 kb/s
Channel(s)                               : 2 channels
Channel layout                           : L R
Sampling rate                            : 48.0 kHz
Frame rate                               : 31.250 FPS (1536 SPF)
Bit depth                                : 16 bits
Compression mode                         : Lossy
Stream size                              : 120 MiB (4%)
Title                                    : / 2.0 Ch / 192 kbps / БЗ / Novy Kanal
Language                                 : Ukrainian
Service kind                             : Complete Main
Default                                  : No
Forced                                   : No

Audio #3
ID                                       : 4
Format                                   : AC-3
Format/Info                              : Audio Coding 3
Commercial name                          : Dolby Digital
Codec ID                                 : A_AC3
Duration                                 : 1 h 27 min
Bit rate mode                            : Constant
Bit rate                                 : 384 kb/s
Channel(s)                               : 6 channels
Channel layout                           : L R C LFE Ls Rs
Sampling rate                            : 48.0 kHz
Frame rate                               : 31.250 FPS (1536 SPF)
Bit depth                                : 16 bits
Compression mode                         : Lossy
Stream size                              : 239 MiB (8%)
Title                                    : / 5.1 Ch / 384 kbps / Original
Language                                 : English
Service kind                             : Complete Main
Default                                  : No
Forced                                   : No

Text
ID                                       : 5
Format                                   : UTF-8
Codec ID                                 : S_TEXT/UTF8
Codec ID/Info                            : UTF-8 Plain Text
Duration                                 : 1 h 22 min
Bit rate                                 : 73 b/s
Count of elements                        : 1589
Stream size                              : 44.4 KiB (0%)
Title                                    : SDH
Language                                 : English
Default                                  : No
Forced                                   : No

Menu
00:00:00.000                             : en:Chapter 1
00:10:00.000                             : en:Chapter 2
00:19:07.000                             : en:Chapter 3
00:28:49.000                             : en:Chapter 4
00:37:28.000                             : en:Chapter 5
00:46:52.000                             : en:Chapter 6
00:56:16.000                             : en:Chapter 7
01:05:04.000                             : en:Chapter 8
01:14:47.000                             : en:Chapter 9
01:19:47.000                             : en:Chapter 10
Світлини




Джерело: &
Особиста оцінка: 0 - не дивився


Срібний реліз (на рейтинг впливає 50% завантаженого)
 Трекер:    Зареєстрований   

Завантажити / скачати фільм українською



відео для новачків



 Зареєстрований:   2019-11-04 11:53
 Розмір:   2.98 GB 
 Оцінка фільму:   10/10 (Голосів: 5)
   
Інші релізи
pah 
Свій


З нами з: 09.11.12
Востаннє: 02.08.20
Повідомлень: 61

2020-03-27 20:16  
дайте швидкості, будь ласка
pah 
Свій


З нами з: 09.11.12
Востаннє: 02.08.20
Повідомлень: 61

2020-04-08 10:57  
Ну, роздайте, людоньки!
Ваш часовий пояс: GMT + 2 Години

Нова тема   Відповісти