Серце та душі / Heart and Souls (1993) 720p 2xUkr/Eng | Sub Eng

Нові коментарі

Нова тема   Відповісти
Останній раз роздавалося михалыч55555 (2019-11-25)
Автор Повідомлення
Anonymous 







2019-11-04 11:48  
Серце та душі / Heart and Souls (1993) 720p 2xUkr/Eng | Sub Eng

Серце та душі / Heart and Souls (1993) 720p 2xUkr/Eng | Sub Eng


Жанр: комедія, драма, фентезі
Країна: США
Кінокомпанія: Universal Pictures
Режисер: Рон Андервуд
Актори: Роберт Дауні мол., Чарльз Гродін, Алфрі Вудард, Елізабет Шу, Том Сайзмур, Девід Пеймер, Кіра Седжвік

Сюжет:
Смерть часто приходить несподівано, і людина не встигає зробити найважливіше, те, без чого її життя не буде завершеним. Так сталося з чотирма різними людьми, що загинули в 1959 році в автокатастрофі. Та все ж у них буде шанс вчинити один, тільки один вчинок вже після смерті - щоб вони покинули цей світ із спокійною душею.

Тривалість: 01:43:14
Якість:

Відео:
кодек:
розмір кадру: 1280 x 720
бітрейт: 6 090 кб/с

Аудіо # 1:
мова: українська
переклад: багатоголосий закадровий
кодек: AC-3 2.0
бітрейт: 192 кб/с

Аудіо # 2:
мова: українська
переклад: двоголосий закадровий
кодек: AC-3 2.0
бітрейт: 192 кб/с

Аудіо # 3:
мова: англійська
переклад: оригінал
кодек: E-AC-3 5.1
бітрейт: 640 кб/с

Субтитри # 1: (SDH)
мова: англійська
тип: програмні (м'які)
формат: *.srt


Info
Код:
General
Unique ID                                : 236478419789976948250392606396609261102 (0xB1E81644CFE52777E7E5491D7E98EE2E)
Complete name                            : Heart and Souls (1993) 720p [2xUKR_ENG] [Hurtom].
Format                                   :
Format version                           : Version 4
File size                                : 5.13 GiB
Duration                                 : 1 h 43 min
Overall bit rate                         : 7 116 kb/s
Movie name                               : Серце та душі / Heart and Souls (1993)
Encoded date                             : UTC 2019-11-03 22:57:24
Writing application                      : v20.0.0 ('I Am The Sun') 64-bit
Writing library                          : libebml v1.3.5 + v1.4.8
Cover                                    : Yes
Attachments                              : Cover.jpg

Video
ID                                       : 1
Format                                   : AVC
Format/Info                              : Advanced Video Codec
Format profile                           : [email protected]
Format settings                          : CABAC / 9 Ref Frames
Format settings, CABAC                   : Yes
Format settings, Reference frames        : 9 frames
Codec ID                                 : V_MPEG4/ISO/AVC
Duration                                 : 1 h 43 min
Bit rate                                 : 6 090 kb/s
Width                                    : 1 280 pixels
Height                                   : 720 pixels
Display aspect ratio                     : 16:9
Frame rate mode                          : Constant
Frame rate                               : 23.976 (24000/1001) FPS
Color space                              : YUV
Chroma subsampling                       : 4:2:0
Bit depth                                : 8 bits
Scan type                                : Progressive
Bits/(Pixel*Frame)                       : 0.276
Stream size                              : 4.39 GiB (86%)
Title                                    : Серце та душі / Heart and Souls (1993)
Writing library                          : core 148 r2638 7599210
Encoding settings                        : cabac=1 / ref=9 / deblock=1:-2:-2 / analyse=0x3:0x113 / me=umh / subme=11 / psy=1 / psy_rd=1.00:0.00 / mixed_ref=1 / me_range=48 / chroma_me=1 / trellis=2 / 8x8dct=1 / cqm=0 / deadzone=21,11 / fast_pskip=0 / chroma_qp_offset=-2 / threads=6 / lookahead_threads=1 / sliced_threads=0 / nr=0 / decimate=0 / interlaced=0 / bluray_compat=0 / constrained_intra=0 / bframes=16 / b_pyramid=2 / b_adapt=2 / b_bias=0 / direct=3 / weightb=1 / open_gop=0 / weightp=2 / keyint=250 / keyint_min=23 / scenecut=40 / intra_refresh=0 / rc_lookahead=60 / rc=2pass / mbtree=1 / bitrate=6090 / ratetol=1.0 / qcomp=0.60 / qpmin=0 / qpmax=69 / qpstep=4 / cplxblur=20.0 / qblur=0.5 / vbv_maxrate=50000 / vbv_bufsize=62500 / nal_hrd=none / filler=0 / ip_ratio=1.40 / aq=3:0.90
Language                                 : English
Default                                  : Yes
Forced                                   : No
Color range                              : Limited
Color primaries                          : BT.709
Transfer characteristics                 : BT.709
Matrix coefficients                      : BT.709

Audio #1
ID                                       : 2
Format                                   : AC-3
Format/Info                              : Audio Coding 3
Commercial name                          : Dolby Digital
Codec ID                                 : A_AC3
Duration                                 : 1 h 43 min
Bit rate mode                            : Constant
Bit rate                                 : 192 kb/s
Channel(s)                               : 2 channels
Channel layout                           : L R
Sampling rate                            : 48.0 kHz
Frame rate                               : 31.250 FPS (1536 SPF)
Bit depth                                : 16 bits
Compression mode                         : Lossy
Stream size                              : 142 MiB (3%)
Title                                    : / 2.0 Ch / 192 kbps / БЗ / ICTV
Language                                 : Ukrainian
Service kind                             : Complete Main
Default                                  : Yes
Forced                                   : Yes

Audio #2
ID                                       : 3
Format                                   : AC-3
Format/Info                              : Audio Coding 3
Commercial name                          : Dolby Digital
Codec ID                                 : A_AC3
Duration                                 : 1 h 43 min
Bit rate mode                            : Constant
Bit rate                                 : 192 kb/s
Channel(s)                               : 2 channels
Channel layout                           : L R
Sampling rate                            : 48.0 kHz
Frame rate                               : 31.250 FPS (1536 SPF)
Bit depth                                : 16 bits
Compression mode                         : Lossy
Stream size                              : 142 MiB (3%)
Title                                    : / 2.0 Ch / 192 kbps / ДЗ / Kanal Ukraina
Language                                 : Ukrainian
Service kind                             : Complete Main
Default                                  : No
Forced                                   : No

Audio #3
ID                                       : 4
Format                                   : E-AC-3
Format/Info                              : Enhanced AC-3
Commercial name                          : Dolby Digital Plus
Codec ID                                 : A_EAC3
Duration                                 : 1 h 43 min
Bit rate mode                            : Constant
Bit rate                                 : 640 kb/s
Channel(s)                               : 6 channels
Channel layout                           : L R C LFE Ls Rs
Sampling rate                            : 48.0 kHz
Frame rate                               : 31.250 FPS (1536 SPF)
Compression mode                         : Lossy
Delay relative to video                  : 16 ms
Stream size                              : 473 MiB (9%)
Title                                    : E- / 5.1 Ch / 640 kbps / Original
Language                                 : English
Service kind                             : Complete Main
Default                                  : No
Forced                                   : No

Text
ID                                       : 5
Format                                   : UTF-8
Codec ID                                 : S_TEXT/UTF8
Codec ID/Info                            : UTF-8 Plain Text
Duration                                 : 1 h 35 min
Bit rate                                 : 77 b/s
Count of elements                        : 1461
Stream size                              : 54.3 KiB (0%)
Title                                    : SDH
Language                                 : English
Default                                  : No
Forced                                   : No

Menu
00:00:00.000                             : en:1
00:04:22.688                             : en:2
00:07:34.688                             : en:3
00:10:36.688                             : en:4
00:13:50.688                             : en:5
00:18:44.688                             : en:6
00:25:24.688                             : en:7
00:31:07.688                             : en:8
00:34:19.688                             : en:9
00:44:04.688                             : en:10
00:49:21.688                             : en:11
00:56:48.688                             : en:12
01:05:10.688                             : en:13
01:11:24.688                             : en:14
01:14:41.688                             : en:15
01:19:51.688                             : en:16
01:28:43.688                             : en:17
01:38:00.688                             : en:18
Світлини




Джерело: &
Особиста оцінка: 0 - не дивився


Срібний реліз (на рейтинг впливає 50% завантаженого)
 Трекер:    Зареєстрований   

Завантажити / скачати фільм українською



відео для новачків



 Зареєстрований:   2019-11-04 11:48
 Розмір:   5.13 GB 
 Оцінка фільму:   10/10 (Голосів: 2)
   
Інші релізи
   Серце та душі / Heart and Souls (1993) 2xUkr Arsenfpu  3 / 0   1.6 GB   2016-09-22 22:49 
   Серце і душі / Heart and Souls (1993) NemoInFire  2 / 0   1.58 GB   2012-12-14 19:57 
Ваш часовий пояс: GMT + 2 Години

Нова тема   Відповісти