Формула 1. Сезон 2019. Етап 19. Гран-Прі США. Гонка (03.11.2019) 1080p 2xUkr/Eng/INT

Нові коментарі

Нова тема   Відповісти
Автор Повідомлення
sergiyko.5 
Забанено
Забанено


З нами з: 25.02.16
Востаннє: 29.10.20
Повідомлень: 3651

2019-11-04 00:47  
Формула 1. Сезон 2019. Етап 19. Гран-Прі США. Гонка (03.11.2019) 1080p 2xUkr/Eng/INT


Формула 1. Сезон 2019. Етап 19. Гран-Прі США. Гонка (03.11.2019) 1080p 2xUkr/Eng/INT

Жанр: Перегони Формули 1
Країна: США
Телеканал: F1 TV
Коментатор: Максим Подзігун, Роман Гончаров

Опис:
Гонка 19 етапу Гран-Прі США 2019 року.


Якість:

Відео: кодек: розмір кадру: 1920 х 1080 бітрейт: 5500 кб/с
Аудіо 1: мова: українська кодек: 2.0 бітрейт: 192 кб/с
Аудіо 2: мова: українська кодек: 2.0 бітрейт: 192 кб/с
Аудіо 3: мова: англійська кодек: 2.0 бітрейт: 70 кб/с
Аудіо 4: мова: - кодек: 2.0 бітрейт: 70 кб/с
Тривалість:
02:05:40
Про файл:
General
Unique ID : 111414868986549159227533885726353129088 (0x53D1B92676010F2A546AF1FCD5F9FE80)
Complete name : D:\Documents\Torrents\SPORT\F1.2019.19.USA.Race.1080p..Ukr.Eng.Int.
Format :
Format version : Version 4
File size : 5.28 GiB
Duration : 2 h 5 min
Overall bit rate : 6 010 kb/s
Movie name : rip by sergiyko
Encoded date : UTC 2019-11-03 23:58:03
Writing application : v38.0.0 ('The Silent Type') 64-bit
Writing library : libebml v1.3.9 + v1.5.2

Video
ID : 1
Format : AVC
Format/Info : Advanced Video Codec
Format profile : [email protected]
Format settings : CABAC / 4 Ref Frames
Format settings, CABAC : Yes
Format settings, Reference : 4 frames
Format settings, GOP : M=4, N=50
Codec ID : V_MPEG4/ISO/AVC
Duration : 2 h 5 min
Bit rate mode : Constant
Bit rate : 5 500 kb/s
Width : 1 920 pixels
Height : 1 080 pixels
Display aspect ratio : 16:9
Frame rate mode : Constant
Frame rate : 25.000 FPS
Color space : YUV
Chroma subsampling : 4:2:0
Bit depth : 8 bits
Scan type : Progressive
Bits/(Pixel*Frame) : 0.106
Stream size : 4.83 GiB (91%)
Language : English
Default : Yes
Forced : No

Audio #1
ID : 2
Format : AC-3
Format/Info : Audio Coding 3
Commercial name : Dolby Digital
Codec ID : A_AC3
Duration : 2 h 5 min
Bit rate mode : Constant
Bit rate : 192 kb/s
Channel(s) : 2 channels
Channel layout : L R
Sampling rate : 48.0 kHz
Frame rate : 31.250 FPS (1536 SPF)
Bit depth : 16 bits
Compression mode : Lossy
Stream size : 173 MiB (3%)
Title : Максим Подзігун
Language : Ukrainian
Service kind : Complete Main
Default : Yes
Forced : Yes

Audio #2
ID : 3
Format : AC-3
Format/Info : Audio Coding 3
Commercial name : Dolby Digital
Codec ID : A_AC3
Duration : 2 h 5 min
Bit rate mode : Constant
Bit rate : 192 kb/s
Channel(s) : 2 channels
Channel layout : L R
Sampling rate : 48.0 kHz
Frame rate : 31.250 FPS (1536 SPF)
Bit depth : 16 bits
Compression mode : Lossy
Stream size : 173 MiB (3%)
Title : Роман Гончаров
Language : Ukrainian
Service kind : Complete Main
Default : No
Forced : No

Audio #3
ID : 4
Format : LC
Format/Info : Advanced Audio Codec Low Complexity
Codec ID : A_AAC-2
Duration : 2 h 5 min
Bit rate : 61.7 kb/s
Channel(s) : 2 channels
Channel layout : L R
Sampling rate : 44.1 kHz
Frame rate : 43.066 FPS (1024 SPF)
Compression mode : Lossy
Stream size : 55.4 MiB (1%)
Title : SkyF1 Commentary
Language : English
Default : No
Forced : No

Audio #4
ID : 5
Format : LC
Format/Info : Advanced Audio Codec Low Complexity
Codec ID : A_AAC-2
Duration : 2 h 5 min
Bit rate : 61.7 kb/s
Channel(s) : 2 channels
Channel layout : L R
Sampling rate : 44.1 kHz
Frame rate : 43.066 FPS (1024 SPF)
Compression mode : Lossy
Stream size : 55.4 MiB (1%)
Title : Natural / Team Radio
Default : No
Forced : No
Скріншоти:


Запис/зведення: sergiyko


 Трекер:    Зареєстрований   

Завантажити / скачати торрент



відео для новачків



 Зареєстрований:   2019-11-04 02:03
 Розмір:   5.28 GB 
 Оцінка:   9.9/10 (Голосів: 16)
   
antik_2008 
Релізер і модератор відео


З нами з: 20.10.08
Востаннє: 30.10.20
Повідомлень: 4235

2019-11-04 02:04  
Перемога! Happy

stas_funnyman 
Новенький


З нами з: 06.01.14
Востаннє: 22.10.20
Повідомлень: 3

2019-11-04 19:41  
Wide grin Дякуємо... молодці
Ваш часовий пояс: GMT + 2 Години

Нова тема   Відповісти