Агент Марні / Marnies Welt (2018) AVC Ukr/Eng

Нові коментарі

Нова тема   Відповісти
Автор Повідомлення
sergiyko.5 
VIP


З нами з: 25.02.16
Востаннє: 23.10.20
Повідомлень: 3611

2019-11-03 16:34  
Агент Марні / Marnies Welt (2018) AVC Ukr/Eng


Агент Марні / Marnies Welt (2018) AVC Ukr/Eng

Жанр: пригоди, сімейний
Країна: Німеччина, Бельгія
Компанія:Grid Animation, Philm CGI, Scope Pictures, Seven Pictures, UFA Fiction
Режисер: Крістоф Лауенштайн, Вольфганг Лауенштайн
Ролі озвучували: Ерік Борнер, Олександра Нелдель, Аксель Праль

Сюжет:
Марні - пухкенька руда кицька, що завжди жила, немов принцеса, і отримувала все, чого хотіла. Але коли настане час пробиватися у цьому світі самотужки, вона усвідомить, хто вона насправді - самотня киця, якій потрібні друзі...




Дата світової прем'єри: 13 червня 2018 року
Дата української прем'єри: 2 травня 2019 року


Тривалість: 01:28:44
Якість:

Відео: кодек: розмір кадру: 1024 х 552 бітрейт: 1100 кб/с
Аудіо # 1: мова: українська переклад: професійний дубльований кодек: 2.0 бітрейт: 192 кб/с
Озвучення: Новий канал
Аудіо # 2: мова: англійська переклад: оригінал кодек: 5.1 бітрейт: 384 кб/с
Про файл:
General
Unique ID : 9835934754867954688360969279814451025 (0x76655064F8B49F31EE94BD6522B3F51)
Complete name : D:\Documents\Torrents\MULT\Marnies.Welt.2018..Ukr.Eng.
Format :
Format version : Version 4
File size : 1.02 GiB
Duration : 1 h 28 min
Overall bit rate : 1 649 kb/s
Movie name : Marnies Welt 2018 by sergiyko
Encoded date : UTC 2019-11-03 13:22:21
Writing application : v38.0.0 ('The Silent Type') 64-bit
Writing library : libebml v1.3.9 + v1.5.2
Cover : Yes
Attachments : cover.jpeg

Video
ID : 1
Format : AVC
Format/Info : Advanced Video Codec
Format profile : [email protected]
Format settings : CABAC / 15 Ref Frames
Format settings, CABAC : Yes
Format settings, Reference : 15 frames
Codec ID : V_MPEG4/ISO/AVC
Duration : 1 h 28 min
Bit rate : 1 071 kb/s
Width : 1 024 pixels
Height : 552 pixels
Display aspect ratio : 1.85:1
Frame rate mode : Constant
Frame rate : 25.000 FPS
Color space : YUV
Chroma subsampling : 4:2:0
Bit depth : 8 bits
Scan type : Progressive
Bits/(Pixel*Frame) : 0.076
Stream size : 680 MiB (65%)
Title : Marnies Welt 2018
Writing library : core 157 r2969 d4099dd
Encoding settings : cabac=1 / ref=15 / deblock=1:-1:-1 / analyse=0x3:0x133 / me=umh / subme=10 / psy=1 / psy_rd=0.40:0.00 / mixed_ref=1 / me_range=32 / chroma_me=1 / trellis=2 / 8x8dct=1 / cqm=0 / deadzone=21,11 / fast_pskip=1 / chroma_qp_offset=-2 / threads=17 / lookahead_threads=4 / sliced_threads=0 / nr=0 / decimate=1 / interlaced=0 / bluray_compat=0 / constrained_intra=0 / bframes=10 / b_pyramid=2 / b_adapt=2 / b_bias=0 / direct=3 / weightb=1 / open_gop=0 / weightp=2 / keyint=250 / keyint_min=25 / scenecut=40 / intra_refresh=0 / rc_lookahead=60 / rc=crf / mbtree=1 / crf=19.0 / qcomp=0.70 / qpmin=0 / qpmax=69 / qpstep=4 / ip_ratio=1.40 / aq=1:0.60
Language : English
Default : Yes
Forced : No

Audio #1
ID : 2
Format : AC-3
Format/Info : Audio Coding 3
Commercial name : Dolby Digital
Codec ID : A_AC3
Duration : 1 h 28 min
Bit rate mode : Constant
Bit rate : 192 kb/s
Channel(s) : 2 channels
Channel layout : L R
Sampling rate : 48.0 kHz
Frame rate : 31.250 FPS (1536 SPF)
Bit depth : 16 bits
Compression mode : Lossy
Stream size : 122 MiB (12%)
Title : DUB | Новий Канал
Language : Ukrainian
Service kind : Complete Main
Default : Yes
Forced : Yes

Audio #2
ID : 3
Format : AC-3
Format/Info : Audio Coding 3
Commercial name : Dolby Digital
Codec ID : A_AC3
Duration : 1 h 28 min
Bit rate mode : Constant
Bit rate : 384 kb/s
Channel(s) : 6 channels
Channel layout : L R C LFE Ls Rs
Sampling rate : 48.0 kHz
Frame rate : 31.250 FPS (1536 SPF)
Bit depth : 16 bits
Compression mode : Lossy
Stream size : 244 MiB (23%)
Title : Original
Language : English
Service kind : Complete Main
Default : No
Forced : No
Скріншоти:


Зведення: sergiyko
Запис: mykola_petrov


 Трекер:    Зареєстрований   

Завантажити / скачати мультфільм українською



відео для новачків



 Зареєстрований:   2019-11-03 16:34
 Розмір:   1.02 GB 
 Оцінка мультфільму:   10/10 (Голосів: 21)
   
Інші релізи
   Агент Марні / Marnies Welt (2018) antik_2008  6 / 0   1.47 GB   2019-11-03 16:41 
   Агент Марні / Marnies Welt (2018) 720p Ukr/Eng sergiyko.5  2 / 0   1.63 GB   2019-11-03 16:30 
   Агент Марні / Marnies Welt (2018) 1080p Ukr/Eng sergiyko.5  4 / 0   3.69 GB   2019-11-03 12:28 
Павло Полуботок 
Забанено
Забанено


З нами з: 07.08.18
Востаннє: 07.09.20
Повідомлень: 10

2019-11-03 20:50  
Дякую. Оцінемо.
Хельга 48 
Свій


З нами з: 02.02.14
Востаннє: 22.10.20
Повідомлень: 117

2019-11-14 01:15  
Сучасні варіації на тему "Бременських музикантів",Смішно,Український дубляж-пречудовий,Дякую
Ваш часовий пояс: GMT + 2 Години

Нова тема   Відповісти