Нульовий канал. Двері мрій (Сезон 4) / Channel Zero (Season 4) (2018) 720p Ukr/Eng

Нові коментарі

Нова тема   Відповісти
Автор Повідомлення
Anonymous 







2019-11-03 15:07  
Нульовий канал. Двері мрій (Сезон 4) / Channel Zero (Season 4) (2018) 720p Ukr/Eng

Нульовий канал. Двері мрій (Сезон 4) / Channel Zero (Season 4) (2018) 720p Ukr/Eng


Жанр: драма, жахи, містика
Країна: США



Кінокомпанія: Universal Cable Productions
Режисер: Е.Л. Катц
Актори: Марія Стен, Брендон Скотт, Стівен Робертсон, Барбара Кремптон, Трой Джеймс, Діана Бентлі, Стівен Вебер, Грег Брайк, Ніколас Туччі, Маріна Стівенсон Терр, Міріам Сміт, Грегг Генрі, Ріна Джоллі, Стівен Р. Гарт, Бредлі Савацкі, Робін Делані, Роберт Боргес, Мікаела Лозано, Меган Бест, Джеймі Андерсон

Сюжет:
Кожен сезон американського серіалу «Нульовий канал» розповідає нову історію.
У новому сезоні під назвою «Двері мрій» дії розгорнуться навколо наречених Джилліан і Томом, які зберігають багато власних таємниць. Коли вони виявляють дивні двері в своєму підвалі, ці секрети починають загрожувати не тільки їхнім стосункам, але і їхнім життям.


Тривалість: 1 серія: ~ 44 хв. (цілком серій: 6)
Перелік серій
1. Ashes on My Pillow
2. Where Did You Sleep Last Night
3. Love Hurts
4. Bizarre Love Triangle
5. You Belong to Me
6. Two of Us
Якість:
Відео:
кодек:
розмір кадру: 1280 х 720
бітрейт: 1307 кб/с

Аудіо # 1:
мова: українська
переклад: багатоголосий закадровий
кодек: 2.0
бітрейт: 192 кб/с

Аудіо # 2:
мова: англійська
переклад: оригінал
кодек: E- 5.1
бітрейт: 640 кб/с

Джерело озвучення:
DniproFilm
Info
General
Unique ID : 1892688072732356871212009797160210130 (0x16C84BA058E8F734C2EBE3F405F0ED2)
Complete name : Channel Zero S04E01 (2018) 720p [Ukr_Eng] [Hurtom].
Format :
Format version : Version 4
File size : 671 MiB
Duration : 43 min 47 s
Overall bit rate : 2 142 kb/s
Movie name : Нульовий канал. Двері мрій (Сезон 4, серія 1) (2018)
Encoded date : UTC 2019-11-03 00:06:32
Writing application : v37.0.0 ('Leave It') 32-bit
Writing library : libebml v1.3.9 + v1.5.2
Cover : Yes
Attachments : cover.jpg

Video
ID : 1
Format : AVC
Format/Info : Advanced Video Codec
Format profile : [email protected]
Format settings : CABAC / 5 Ref Frames
Format settings, CABAC : Yes
Format settings, ReFrames : 5 frames
Codec ID : V_MPEG4/ISO/AVC
Duration : 43 min 47 s
Bit rate : 1 307 kb/s
Width : 1 280 pixels
Height : 720 pixels
Display aspect ratio : 16:9
Frame rate mode : Constant
Frame rate : 23.976 (24000/1001) FPS
Color space : YUV
Chroma subsampling : 4:2:0
Bit depth : 8 bits
Scan type : Progressive
Bits/(Pixel*Frame) : 0.059
Stream size : 409 MiB (61%)
Language : English
Default : Yes
Forced : No
Color range : Limited
Color primaries : BT.709
Transfer characteristics : BT.709
Matrix coefficients : BT.709

Audio #1
ID : 2
Format : AC-3
Format/Info : Audio Coding 3
Commercial name : Dolby Digital
Codec ID : A_AC3
Duration : 43 min 47 s
Bit rate mode : Constant
Bit rate : 192 kb/s
Channel(s) : 2 channels
Channel layout : L R
Sampling rate : 48.0 kHz
Frame rate : 31.250 FPS (1536 SPF)
Bit depth : 16 bits
Compression mode : Lossy
Stream size : 60.1 MiB (9%)
Language : Ukrainian
Service kind : Complete Main
Default : Yes
Forced : Yes

Audio #2
ID : 3
Format : E-AC-3
Format/Info : Enhanced AC-3
Commercial name : Dolby Digital Plus
Codec ID : A_EAC3
Duration : 43 min 47 s
Bit rate mode : Constant
Bit rate : 640 kb/s
Channel(s) : 6 channels
Channel layout : L R C LFE Ls Rs
Sampling rate : 48.0 kHz
Frame rate : 31.250 FPS (1536 SPF)
Compression mode : Lossy
Stream size : 200 MiB (30%)
Language : English
Service kind : Complete Main
Default : No
Forced : No
Скріншоти





Джерело:


Авторський реліз (завантажувати можна без реєстрації)
 Трекер:    Зареєстрований   

Завантажити / скачати серіал українською



відео для новачків



 Зареєстрований:   2019-11-03 15:07
 Розмір:   4.3 GB 
 Оцінка серіалу:   10/10 (Голосів: 2)
   
Anonymous 







2019-11-03 15:10  
Синхронізовано під чисті амазонівські ріпи.
Щодо назви (мрії - мрій), то на постері так і в перших серіях студія чітко говорить - Двері мрій, тому залишу так.

Ваш часовий пояс: GMT + 2 Години

Нова тема   Відповісти