Агент Марні / Marnies Welt (2018) 1080p Ukr/Eng

Нові коментарі

Нова тема   Відповісти
Автор Повідомлення
sergiyko.5 
Забанено
Забанено


З нами з: 25.02.16
Востаннє: 29.10.20
Повідомлень: 3648

2019-11-03 10:38  
Агент Марні / Marnies Welt (2018) 1080p Ukr/Eng


Агент Марні / Marnies Welt (2018) 1080p Ukr/Eng

Жанр: пригоди, сімейний
Країна: Німеччина, Бельгія
Компанія:Grid Animation, Philm CGI, Scope Pictures, Seven Pictures, UFA Fiction
Режисер: Крістоф Лауенштайн, Вольфганг Лауенштайн
Ролі озвучували: Ерік Борнер, Олександра Нелдель, Аксель Праль

Сюжет:
Марні - пухкенька руда кицька, що завжди жила, немов принцеса, і отримувала все, чого хотіла. Але коли настане час пробиватися у цьому світі самотужки, вона усвідомить, хто вона насправді - самотня киця, якій потрібні друзі...




Дата світової прем'єри: 13 червня 2018 року
Дата української прем'єри: 2 травня 2019 року


Тривалість: 01:28:23
Якість:

Відео: кодек: розмір кадру: 1920 х 1040 бітрейт: 5400 кб/с
Аудіо # 1: мова: українська переклад: професійний дубльований кодек: 2.0 бітрейт: 192 кб/с
Озвучення: Новий канал
Аудіо # 2: мова: англійська переклад: оригінал кодек: 5.1 бітрейт: 384 кб/с
Про файл:
General
Unique ID : 12686365130745713675589720367670401956 (0x98B4E17B2319C47757DF258C91A9BA4)
Complete name : D:\Documents\Torrents\MULT\Marnies.Welt.2018..1080p.Ukr.Eng.
Format :
Format version : Version 4
File size : 3.69 GiB
Duration : 1 h 28 min
Overall bit rate : 5 975 kb/s
Movie name : Marnies Welt 2018 1080p by sergiyko
Encoded date : UTC 2019-11-03 09:24:21
Writing application : v38.0.0 ('The Silent Type') 64-bit
Writing library : libebml v1.3.9 + v1.5.2
Cover : Yes
Attachments : cover.jpeg

Video
ID : 1
Format : AVC
Format/Info : Advanced Video Codec
Format profile : [email protected]
Format settings : CABAC / 4 Ref Frames
Format settings, CABAC : Yes
Format settings, Reference : 4 frames
Codec ID : V_MPEG4/ISO/AVC
Duration : 1 h 28 min
Bit rate : 5 396 kb/s
Width : 1 920 pixels
Height : 1 040 pixels
Display aspect ratio : 1.85:1
Frame rate mode : Constant
Frame rate : 25.000 FPS
Color space : YUV
Chroma subsampling : 4:2:0
Bit depth : 8 bits
Scan type : Progressive
Bits/(Pixel*Frame) : 0.108
Stream size : 3.33 GiB (90%)
Title : Marnies Welt 2018
Language : English
Default : Yes
Forced : No
Color range : Limited
Color primaries : BT.709
Transfer characteristics : BT.709
Matrix coefficients : BT.709

Audio #1
ID : 2
Format : AC-3
Format/Info : Audio Coding 3
Commercial name : Dolby Digital
Codec ID : A_AC3
Duration : 1 h 28 min
Bit rate mode : Constant
Bit rate : 192 kb/s
Channel(s) : 2 channels
Channel layout : L R
Sampling rate : 48.0 kHz
Frame rate : 31.250 FPS (1536 SPF)
Bit depth : 16 bits
Compression mode : Lossy
Stream size : 121 MiB (3%)
Title : DUB | Новий Канал
Language : Ukrainian
Service kind : Complete Main
Default : Yes
Forced : Yes

Audio #2
ID : 3
Format : AC-3
Format/Info : Audio Coding 3
Commercial name : Dolby Digital
Codec ID : A_AC3
Duration : 1 h 28 min
Bit rate mode : Constant
Bit rate : 384 kb/s
Channel(s) : 6 channels
Channel layout : L R C LFE Ls Rs
Sampling rate : 48.0 kHz
Frame rate : 31.250 FPS (1536 SPF)
Bit depth : 16 bits
Compression mode : Lossy
Stream size : 243 MiB (6%)
Title : Original
Language : English
Service kind : Complete Main
Default : No
Forced : No
Скріншоти:


Зведення: sergiyko
Запис: mykola_petrov


 Трекер:    Зареєстрований   

Завантажити / скачати мультфільм українською



відео для новачків



 Зареєстрований:   2019-11-03 11:28
 Розмір:   3.69 GB 
 Оцінка мультфільму:   10/10 (Голосів: 11)
   
Інші релізи
   Агент Марні / Marnies Welt (2018) antik_2008  8 / 0   1.47 GB   2019-11-03 15:41 
   Агент Марні / Marnies Welt (2018) AVC Ukr/Eng sergiyko.5  8 / 0   1.02 GB   2019-11-03 15:34 
   Агент Марні / Marnies Welt (2018) 720p Ukr/Eng sergiyko.5  2 / 0   1.63 GB   2019-11-03 15:30 
Ваш часовий пояс: GMT + 2 Години

Нова тема   Відповісти