Формула 1. Сезон 2019. Етап 19. Гран-Прі США. Кваліфікація (02.11.2019) IPTV 1080p Ukr/Eng

Нові коментарі

Нова тема   Відповісти
Автор Повідомлення
sergiyko.5 
VIP


З нами з: 25.02.16
Востаннє: 25.10.20
Повідомлень: 3617

2019-11-03 09:27  
Формула 1. Сезон 2019. Етап 19. Гран-Прі США. Кваліфікація (02.11.2019) IPTV 1080p Ukr/Eng

Формула 1. Сезон 2019. Етап 19. Гран-Прі США. Кваліфікація (02.11.2019) IPTV 1080p Ukr/Eng

Жанр: Перегони Формули 1
Країна: США
Телеканал: Sky Sports F1 HD
Коментатор: Максим Подзігун

Опис:
Кваліфікація 19 етапу Гран-Прі США 2019 року.


Якість: IPTV

Відео: кодек: розмір кадру: 1920 х 1080 бітрейт: 6000 кб/с
Аудіо 1: мова: українська кодек: 2.0 бітрейт: 192 кб/с
Аудіо 2: мова: англійська кодек: 2.0 бітрейт: 256 кб/с
Тривалість:
01:14:46
Про файл:
General
Unique ID : 154423353484605074401742107819813974931 (0x742CDB26AC90589CFBBAD7A143F13393)
Complete name : D:\Documents\Torrents\SPORT\F1.2019.19.USA.Qualifying.1080p.IPTV.Ukr.Eng.
Format :
Format version : Version 4
File size : 3.37 GiB
Duration : 1 h 14 min
Overall bit rate mode : Variable
Overall bit rate : 6 447 kb/s
Movie name : rip by sergiyko
Encoded date : UTC 2019-11-03 07:17:30
Writing application : v38.0.0 ('The Silent Type') 64-bit
Writing library : libebml v1.3.9 + v1.5.2

Video
ID : 1
Format : AVC
Format/Info : Advanced Video Codec
Format profile : [email protected]
Format settings : CABAC / 2 Ref Frames
Format settings, CABAC : Yes
Format settings, Reference : 2 frames
Codec ID : V_MPEG4/ISO/AVC
Duration : 1 h 14 min
Bit rate mode : Variable
Bit rate : 5 995 kb/s
Maximum bit rate : 12.4 Mb/s
Width : 1 920 pixels
Height : 1 080 pixels
Original height : 1 088 pixels
Display aspect ratio : 16:9
Original display aspect rat : 16:9
Frame rate mode : Variable
Frame rate : 50.000 FPS
Color space : YUV
Chroma subsampling : 4:2:0
Bit depth : 8 bits
Scan type : Progressive
Bits/(Pixel*Frame) : 0.058
Stream size : 3.13 GiB (93%)
Language : English
Default : Yes
Forced : No

Audio #1
ID : 2
Format : AC-3
Format/Info : Audio Coding 3
Commercial name : Dolby Digital
Codec ID : A_AC3
Duration : 1 h 14 min
Bit rate mode : Constant
Bit rate : 192 kb/s
Channel(s) : 2 channels
Channel layout : L R
Sampling rate : 48.0 kHz
Frame rate : 31.250 FPS (1536 SPF)
Bit depth : 16 bits
Compression mode : Lossy
Delay relative to video : 12 ms
Stream size : 103 MiB (3%)
Title : Максим Подзігун
Language : Ukrainian
Service kind : Complete Main
Default : Yes
Forced : Yes

Audio #2
ID : 3
Format : LC
Format/Info : Advanced Audio Codec Low Complexity
Codec ID : A_AAC-2
Duration : 1 h 14 min
Bit rate : 255 kb/s
Channel(s) : 2 channels
Channel layout : L R
Sampling rate : 48.0 kHz
Frame rate : 46.875 FPS (1024 SPF)
Compression mode : Lossy
Delay relative to video : 8 ms
Stream size : 137 MiB (4%)
Language : English
Default : No
Forced : No
Скріншоти:


Запис/зведення: sergiyko


 Трекер:    Зареєстрований   

Завантажити / скачати торрент



відео для новачків



 Зареєстрований:   2019-11-03 09:27
 Розмір:   3.37 GB 
 Оцінка:   9.6/10 (Голосів: 14)
   
Umbrella.Corps 
Свій


З нами з: 09.04.17
Востаннє: 24.10.20
Повідомлень: 61

2019-11-16 23:18  
Бразилії не буде, я так зрозумів?)
sergiyko.5 
VIP


З нами з: 25.02.16
Востаннє: 25.10.20
Повідомлень: 3617

2019-11-16 23:43  
Так, запис не вдався. А на патреоні оплата не проходить, не розумію в чому справа.
Farazoon 
Частий відвідувач


З нами з: 12.04.12
Востаннє: 25.10.20
Повідомлень: 27

2019-11-17 10:48  
sergiyko.5
Зробіть хоч із Гончаровим

sergiyko.5 
VIP


З нами з: 25.02.16
Востаннє: 25.10.20
Повідомлень: 3617

2019-11-17 11:06  
Гончаров не коментує кваліфікації.
Ваш часовий пояс: GMT + 2 Години

Нова тема   Відповісти