Дублікат / Jonathan (2018) 1080p Ukr/Eng | Sub Eng

Нові коментарі

Нова тема   Відповісти
Автор Повідомлення
Anonymous 







2019-11-03 00:18  
Дублікат / Jonathan (2018) 1080p Ukr/Eng | Sub Eng

Дублікат / Jonathan (2018) 1080p Ukr/Eng | Sub Eng


Жанр: фантастика, драма
Країна: США
Вікові обмеження: 16+



Кінокомпанія: Manis Film, Raised by Wolves
Режисер: Біл Олівер / Bill Oliver
Актори: Ансель Елгорт / Ansel Elgort, Сукі Вотергаус / Suki Waterhouse, Патрісія Кларксон / Patricia Clarkson, Метт Бомер / Matt Bomer, Дуґлас Ходж / Douglas Hodge, Джо Еґендер / Joe Egender, Шунорі Раманатхан / Shunori Ramanathan, Сулейман Сі Саване / Souleymane Sy Savane

Сюжет:
Джонатан зовсім не схожий на інших жителів Нью-Йорка. Зовні він нічим не відрізняється, але він особливий — у нього є два життя. Вдень він Джонатан, який встає о 7 ранку і йде на роботу, в загальному, нічого цікавого. Але коли він засинає, прокидається його дублікат на ім'я Джо. Вони абсолютно не схожі, адже Джо дуже активний і, як то кажуть, живе на повну в свій нічний час. Спілкуються ці дві особистості за допомогою відео — отримують записи того, що робили їх копії. Цей феномен важко пояснити навіть науці, хоча лікарі вже довго його вивчають. Найважчі часи настають тоді, коли такі різні Джонатан і Джо починають сваритися. Особливо через дівчину.


Тривалість: 01:40:48
Якість: 1080p

Відео:
кодек:
розмір кадру: 1920x804
бітрейт: 6906 кб/с

Аудіо # 1:
мова: українська
переклад: багатоголосий закадровий
кодек: 2.0
бітрейт: 192 кб/с

Аудіо # 2:
мова: англійська
переклад: оригінал
кодек: 5.1
бітрейт: 1510 кб/с

Субтитри # 1-2 : (Full, SDH)
мова: англійська
тип: програмні (м'які)
формат: *.srt

Збережено оригінальні розділи, як на Blu-ray.
Info
Код:

General
Complete name                            : Jonathan (2018) 1080p [Ukr_Eng] [ViDeO_Hurtom].
Format                                   :
Format version                           : Version 4
File size                                : 6.06 GiB
Duration                                 : 1 h 40 min
Overall bit rate                         : 8 610 kb/s
Encoded date                             : UTC 2019-11-02 22:48:13
Writing application                      : v30.1.0 ('Forever And More') 64-bit
Writing library                          : libebml v1.3.6 + v1.4.9
Cover                                    : Yes
Attachments                              : cover.jpg

Video
ID                                       : 1
Format                                   : AVC
Format/Info                              : Advanced Video Codec
Format profile                           : [email protected]
Format settings                          : CABAC / 5 Ref Frames
Format settings, CABAC                   : Yes
Format settings, RefFrames               : 5 frames
Codec ID                                 : V_MPEG4/ISO/AVC
Duration                                 : 1 h 40 min
Bit rate                                 : 6 906 kb/s
Width                                    : 1 920 pixels
Height                                   : 804 pixels
Display aspect ratio                     : 2.40:1
Frame rate mode                          : Constant
Frame rate                               : 23.976 (24000/1001) FPS
Color space                              : YUV
Chroma subsampling                       : 4:2:0
Bit depth                                : 8 bits
Scan type                                : Progressive
Bits/(Pixel*Frame)                       : 0.187
Stream size                              : 4.86 GiB (80%)
Title                                    : CHD
Writing library                          : core 155 r2893 b00bcaf
Encoding settings                        : cabac=1 / ref=5 / deblock=1:-3:-3 / analyse=0x3:0x113 / me=umh / subme=10 / psy=1 / psy_rd=1.00:0.05 / mixed_ref=1 / me_range=48 / chroma_me=1 / trellis=2 / 8x8dct=1 / cqm=0 / deadzone=21,11 / fast_pskip=0 / chroma_qp_offset=-2 / threads=18 / lookahead_threads=3 / sliced_threads=0 / nr=0 / decimate=1 / interlaced=0 / bluray_compat=0 / constrained_intra=0 / bframes=8 / b_pyramid=2 / b_adapt=2 / b_bias=0 / direct=3 / weightb=1 / open_gop=0 / weightp=2 / keyint=250 / keyint_min=23 / scenecut=40 / intra_refresh=0 / rc_lookahead=40 / rc=crf / mbtree=0 / crf=18.0 / qcomp=0.60 / qpmin=0 / qpmax=69 / qpstep=4 / vbv_maxrate=50000 / vbv_bufsize=45000 / crf_max=0.0 / nal_hrd=none / filler=0 / ip_ratio=1.40 / pb_ratio=1.30 / aq=3:1.00
Language                                 : English
Default                                  : Yes
Forced                                   : No
Color range                              : Limited
Matrix coefficients                      : BT.709

Audio #1
ID                                       : 2
Format                                   : AC-3
Format/Info                              : Audio Coding 3
Commercial name                          : Dolby Digital
Codec ID                                 : A_AC3
Duration                                 : 1 h 40 min
Bit rate mode                            : Constant
Bit rate                                 : 192 kb/s
Channel(s)                               : 2 channels
Channel layout                           : L R
Sampling rate                            : 48.0 kHz
Frame rate                               : 31.250 FPS (1536 SPF)
Bit depth                                : 16 bits
Compression mode                         : Lossy
Stream size                              : 138 MiB (2%)
Title                                    : , 2 ch, 192 Кбит/с
Language                                 : Ukrainian
Service kind                             : Complete Main
Default                                  : Yes
Forced                                   : No

Audio #2
ID                                       : 3
Format                                   :
Format/Info                              : Digital Theater Systems
Codec ID                                 : A_DTS
Duration                                 : 1 h 40 min
Bit rate mode                            : Constant
Bit rate                                 : 1 509 kb/s
Channel(s)                               : 6 channels
Channel layout                           : C L R Ls Rs LFE
Sampling rate                            : 48.0 kHz
Frame rate                               : 93.750 FPS (512 SPF)
Bit depth                                : 24 bits
Compression mode                         : Lossy
Stream size                              : 1.06 GiB (18%)
Title                                    : , 6 ch, 1510 Кбт/с
Language                                 : English
Default                                  : No
Forced                                   : No

Text #1
ID                                       : 4
Format                                   : UTF-8
Codec ID                                 : S_TEXT/UTF8
Codec ID/Info                            : UTF-8 Plain Text
Duration                                 : 1 h 35 min
Bit rate                                 : 40 b/s
Count of elements                        : 937
Stream size                              : 28.0 KiB (0%)
Title                                    : Full
Language                                 : English
Default                                  : Yes
Forced                                   : No

Text #2
ID                                       : 5
Format                                   : UTF-8
Codec ID                                 : S_TEXT/UTF8
Codec ID/Info                            : UTF-8 Plain Text
Duration                                 : 1 h 35 min
Bit rate                                 : 48 b/s
Count of elements                        : 1207
Stream size                              : 33.7 KiB (0%)
Title                                    : SDH
Language                                 : English
Default                                  : No
Forced                                   : No

Menu
00:00:00.000                             : en:00:00:00.000
00:06:53.663                             : en:00:06:53.663
00:13:04.325                             : en:00:13:04.325
00:20:40.322                             : en:00:20:40.322
00:27:33.235                             : en:00:27:33.235
00:34:05.335                             : en:00:34:05.335
00:43:37.198                             : en:00:43:37.198
00:53:06.850                             : en:00:53:06.850
01:02:43.593                             : en:01:02:43.593
01:11:23.738                             : en:01:11:23.738
01:23:01.894                             : en:01:23:01.894
01:35:42.362                             : en:01:35:42.362
Скріншоти




Подяка за аудіо: Sando7
Подяка за допомогу в створенні релізу: Maters
Джерело:
Особиста оцінка: 0 - не дивився


 Трекер:    Зареєстрований   

Завантажити / скачати фільм українською



відео для новачків



 Зареєстрований:   2019-11-03 00:58
 Розмір:   6.06 GB 
 Оцінка фільму:   9.7/10 (Голосів: 7)
   
Інші релізи
   Дублікат / Jonathan (2018) Remux 1080p Ukr/Eng | Sub Eng antik_2008  2 / 0   18.11 GB   2019-11-03 00:17 
   Дублікат / Jonathan (2018) 720p Ukr/Eng | Sub Eng antik_2008  3 / 0   3.32 GB   2019-11-03 00:17 
   Дублікат / Jonathan (2018) antik_2008  7 / 0   1.15 GB   2019-11-02 22:08 
   Дублікат / Jonathan (2018) AVC Ukr/Eng | Sub Eng Maters  10 / 0   1.71 GB   2019-11-02 20:25 
Ваш часовий пояс: GMT + 2 Години

Нова тема   Відповісти