Дублікат / Jonathan (2018) Remux 1080p Ukr/Eng | Sub Eng

Нові коментарі

Нова тема   Відповісти
Автор Повідомлення
Anonymous 







2019-11-03 00:17  
Дублікат / Jonathan (2018) Remux 1080p Ukr/Eng | Sub Eng

Дублікат / Jonathan (2018) Remux 1080p Ukr/Eng | Sub Eng


Жанр: фантастика, драма
Країна: США
Вікові обмеження: 16+



Кінокомпанія: Manis Film, Raised by Wolves
Режисер: Біл Олівер / Bill Oliver
Актори: Ансель Елгорт / Ansel Elgort, Сукі Вотергаус / Suki Waterhouse, Патрісія Кларксон / Patricia Clarkson, Метт Бомер / Matt Bomer, Дуґлас Ходж / Douglas Hodge, Джо Еґендер / Joe Egender, Шунорі Раманатхан / Shunori Ramanathan, Сулейман Сі Саване / Souleymane Sy Savane

Сюжет:
Джонатан зовсім не схожий на інших жителів Нью-Йорка. Зовні він нічим не відрізняється, але він особливий — у нього є два життя. Вдень він Джонатан, який встає о 7 ранку і йде на роботу, в загальному, нічого цікавого. Але коли він засинає, прокидається його дублікат на ім'я Джо. Вони абсолютно не схожі, адже Джо дуже активний і, як то кажуть, живе на повну в свій нічний час. Спілкуються ці дві особистості за допомогою відео — отримують записи того, що робили їх копії. Цей феномен важко пояснити навіть науці, хоча лікарі вже довго його вивчають. Найважчі часи настають тоді, коли такі різні Джонатан і Джо починають сваритися. Особливо через дівчину.


Тривалість: 01:40:48
Якість: Remux 1080p

Відео:
кодек:
розмір кадру: 1920x1080
бітрейт: 22814 кб/с

Аудіо # 1:
мова: українська
переклад: багатоголосий закадровий
кодек: 2.0
бітрейт: 192 кб/с

Аудіо # 2:
мова: англійська
переклад: оригінал
кодек: 5.1
бітрейт: 448 кб/с

Аудіо # 3:
мова: англійська
переклад: оригінал
кодек: -HD MA 5.1
бітрейт: 2266 кб/с

Субтитри # 1-2 : (Full, SDH)
мова: англійська
тип: програмні (м'які)
формат: *.srt

Збережено оригінальні розділи, як на Blu-ray.
Info
Код:

General
Complete name                            : Jonathan (2018) Remux 1080p [Ukr_Eng] [ViDeO_Hurtom].
Format                                   :
Format version                           : Version 4
File size                                : 18.1 GiB
Duration                                 : 1 h 40 min
Overall bit rate mode                    : Variable
Overall bit rate                         : 25.7 Mb/s
Encoded date                             : UTC 2019-11-02 21:55:22
Writing application                      : v30.1.0 ('Forever And More') 64-bit
Writing library                          : libebml v1.3.6 + v1.4.9
Cover                                    : Yes
Attachments                              : cover.jpg

Video
ID                                       : 1
Format                                   : AVC
Format/Info                              : Advanced Video Codec
Format profile                           : [email protected]
Format settings                          : CABAC / 4 Ref Frames
Format settings, CABAC                   : Yes
Format settings, RefFrames               : 4 frames
Codec ID                                 : V_MPEG4/ISO/AVC
Duration                                 : 1 h 40 min
Bit rate mode                            : Variable
Bit rate                                 : 22.8 Mb/s
Maximum bit rate                         : 30.0 Mb/s
Width                                    : 1 920 pixels
Height                                   : 1 080 pixels
Display aspect ratio                     : 16:9
Frame rate mode                          : Constant
Frame rate                               : 23.976 (24000/1001) FPS
Color space                              : YUV
Chroma subsampling                       : 4:2:0
Bit depth                                : 8 bits
Scan type                                : Progressive
Bits/(Pixel*Frame)                       : 0.459
Stream size                              : 16.1 GiB (89%)
Language                                 : English
Default                                  : Yes
Forced                                   : No

Audio #1
ID                                       : 2
Format                                   : AC-3
Format/Info                              : Audio Coding 3
Commercial name                          : Dolby Digital
Codec ID                                 : A_AC3
Duration                                 : 1 h 40 min
Bit rate mode                            : Constant
Bit rate                                 : 192 kb/s
Channel(s)                               : 2 channels
Channel layout                           : L R
Sampling rate                            : 48.0 kHz
Frame rate                               : 31.250 FPS (1536 SPF)
Bit depth                                : 16 bits
Compression mode                         : Lossy
Stream size                              : 138 MiB (1%)
Title                                    : , 2 ch, 192 Кбт/с
Language                                 : Ukrainian
Service kind                             : Complete Main
Default                                  : Yes
Forced                                   : No

Audio #2
ID                                       : 3
Format                                   : AC-3
Format/Info                              : Audio Coding 3
Commercial name                          : Dolby Digital
Codec ID                                 : A_AC3
Duration                                 : 1 h 40 min
Bit rate mode                            : Constant
Bit rate                                 : 448 kb/s
Channel(s)                               : 6 channels
Channel layout                           : L R C LFE Ls Rs
Sampling rate                            : 48.0 kHz
Frame rate                               : 31.250 FPS (1536 SPF)
Bit depth                                : 16 bits
Compression mode                         : Lossy
Stream size                              : 323 MiB (2%)
Title                                    : , 6 ch, 448 Кбт/с
Language                                 : English
Service kind                             : Complete Main
Default                                  : No
Forced                                   : No

Audio #3
ID                                       : 4
Format                                   : XLL
Format/Info                              : Digital Theater Systems
Commercial name                          : -HD Master Audio
Codec ID                                 : A_DTS
Duration                                 : 1 h 40 min
Bit rate mode                            : Variable
Bit rate                                 : 2 266 kb/s
Channel(s)                               : 6 channels
Channel layout                           : C L R Ls Rs LFE
Sampling rate                            : 48.0 kHz
Frame rate                               : 93.750 FPS (512 SPF)
Bit depth                                : 16 bits
Compression mode                         : Lossless
Stream size                              : 1.60 GiB (9%)
Title                                    : -HD MA, 6 ch, 2266 Кбт/с
Language                                 : English
Default                                  : No
Forced                                   : No

Text #1
ID                                       : 5
Format                                   : UTF-8
Codec ID                                 : S_TEXT/UTF8
Codec ID/Info                            : UTF-8 Plain Text
Duration                                 : 1 h 35 min
Bit rate                                 : 40 b/s
Count of elements                        : 937
Stream size                              : 28.0 KiB (0%)
Title                                    : Full
Language                                 : English
Default                                  : Yes
Forced                                   : No

Text #2
ID                                       : 6
Format                                   : UTF-8
Codec ID                                 : S_TEXT/UTF8
Codec ID/Info                            : UTF-8 Plain Text
Duration                                 : 1 h 35 min
Bit rate                                 : 48 b/s
Count of elements                        : 1207
Stream size                              : 33.7 KiB (0%)
Title                                    : SDH
Language                                 : English
Default                                  : No
Forced                                   : No

Menu
00:00:00.000                             : en:00:00:00.000
00:06:53.663                             : en:00:06:53.663
00:13:04.325                             : en:00:13:04.325
00:20:40.322                             : en:00:20:40.322
00:27:33.235                             : en:00:27:33.235
00:34:05.335                             : en:00:34:05.335
00:43:37.198                             : en:00:43:37.198
00:53:06.850                             : en:00:53:06.850
01:02:43.593                             : en:01:02:43.593
01:11:23.738                             : en:01:11:23.738
01:23:01.894                             : en:01:23:01.894
01:35:42.362                             : en:01:35:42.362
Скріншоти




Подяка за аудіо: Sando7
Подяка за допомогу в створенні релізу: Maters
Джерело:
Особиста оцінка: 0 - не дивився


Золотий реліз (завантажене не впливає на рейтинг)
 Трекер:    Зареєстрований   

Завантажити / скачати фільм українською



відео для новачків



 Зареєстрований:   2019-11-03 00:17
 Розмір:   18.11 GB 
 Оцінка фільму:   9.8/10 (Голосів: 9)
   
Інші релізи
   Дублікат / Jonathan (2018) 1080p Ukr/Eng | Sub Eng antik_2008  13 / 1   6.06 GB   2019-11-03 00:58 
   Дублікат / Jonathan (2018) 720p Ukr/Eng | Sub Eng antik_2008  7 / 1   3.32 GB   2019-11-03 00:17 
   Дублікат / Jonathan (2018) antik_2008  28 / 0   1.15 GB   2019-11-02 22:08 
   Дублікат / Jonathan (2018) AVC Ukr/Eng | Sub Eng Maters  32 / 2   1.71 GB   2019-11-02 20:25 
Ваш часовий пояс: GMT + 2 Години

Нова тема   Відповісти