Безчуттєвий (Без почуттів, Без відчуттів) / Senseless (1998) Remux 1080p 4xUkr/Eng | Sub Eng

Нові коментарі

Нова тема   Відповісти
Автор Повідомлення
Anonymous 







2019-11-03 00:27  
Безчуттєвий (Без почуттів, Без відчуттів) / Senseless (1998) Remux 1080p 4xUkr/Eng | Sub Eng



Жанр: комедія, мелодрама
Країна: США



Кінокомпанія: Dimension Films, Mandeville Films, Gold/Miller Productions
Режисер: Пенелопа Сфіріс / Penelope Spheeris
Актори: Марлон Вайанс / Marlon Wayans, Меттью Ліллард / Matthew Lillard, Ріп Торн / Rip Torn, Бред Дуріф / Brad Dourif, Девід Спейд / David Spade та інші

Сюжет:
Бідний студент Дерріл Візерспун працює на чотирьох роботах, але грошей на оплату рахунків великої родини все одно не вистачає. Єдина надія - вибороти перемогу у конкурсі за посаду молодшого аналітика у відомій брокерській компанії. І якраз доречним тут стає випробування нових ліків, що в декілька разів поліпшують людські відчуття. Молода людина стає мало не супергероєм, але несподівано даються взнаки дивні побічні ефекти ...


рейтинг MPAA: R - особам до 17 років обов'язкова присутність батьків або дорослого опікуна
Вікова категорія: 16+

Тривалість: 01:33:21
Якість: Remux 1080p
Відео:
кодек:
розмір кадру: 1920x1080
бітрейт: 18000 кб/с

Аудіо # 1:
мова: українська
переклад: професійний дубльований
кодек: 2.0 (стерео)
бітрейт: 192 кб/с

Аудіо # 2:
мова: українська
переклад: багатоголосий закадровий
кодек: 2.0
бітрейт: 192 кб/с
примітка: назву озвучено "Без почуттів"

Аудіо # 3:
мова: українська
переклад: двоголосий закадровий
чоловічі ролі озвучив: Юрій Ребрик
кодек: 2.0
бітрейт: 192 кб/с

Аудіо # 4:
мова: українська
переклад: двоголосий закадровий
ролі озвучили: Євген Пашин і Наталя Ярошенко
кодек: 2.0
бітрейт: 192 кб/с
примітка: присутня півхвилинна вставка з доріжки Нового

Аудіо # 5:
мова: англійська
переклад: оригінал
кодек: 5.1
бітрейт: 384 кб/с

Аудіо # 6:
мова: англійська
переклад: оригінал
кодек: -HD Master 2.0
бітрейт: 2107 кб/с

Субтитри:
мова: англійська
тип: програмні (м'які)
формат: *.pgs
Info
Код:

General
Complete name                            : Senseless (1998) Remux 1080p [4xukr,eng] [ViDeO_Hurtom].
Format                                   :
Format version                           : Version 4
File size                                : 13.9 GiB
Duration                                 : 1 h 33 min
Overall bit rate mode                    : Variable
Overall bit rate                         : 21.3 Mb/s
Movie name                               : Senseless (1998) Remux 1080p [4xukr,eng] [ViDeO_Hurtom]
Encoded date                             : UTC 2019-11-02 20:55:51
Writing application                      : v30.1.0 ('Forever And More') 64-bit
Writing library                          : libebml v1.3.6 + v1.4.9
Cover                                    : Yes
Attachments                              : cover.jpg

Video
ID                                       : 1
Format                                   : AVC
Format/Info                              : Advanced Video Codec
Format profile                           : [email protected]
Format settings                          : CABAC / 4 Ref Frames
Format settings, CABAC                   : Yes
Format settings, RefFrames               : 4 frames
Codec ID                                 : V_MPEG4/ISO/AVC
Duration                                 : 1 h 33 min
Bit rate mode                            : Variable
Bit rate                                 : 18.0 Mb/s
Maximum bit rate                         : 34.9 Mb/s
Width                                    : 1 920 pixels
Height                                   : 1 080 pixels
Display aspect ratio                     : 16:9
Frame rate mode                          : Constant
Frame rate                               : 23.976 (24000/1001) FPS
Standard                                 : NTSC
Color space                              : YUV
Chroma subsampling                       : 4:2:0
Bit depth                                : 8 bits
Scan type                                : Progressive
Bits/(Pixel*Frame)                       : 0.362
Stream size                              : 11.7 GiB (85%)
Default                                  : Yes
Forced                                   : No
Color range                              : Limited
Color primaries                          : BT.709
Transfer characteristics                 : BT.709
Matrix coefficients                      : BT.709

Audio #1
ID                                       : 2
Format                                   : AC-3
Format/Info                              : Audio Coding 3
Commercial name                          : Dolby Digital
Codec ID                                 : A_AC3
Duration                                 : 1 h 33 min
Bit rate mode                            : Constant
Bit rate                                 : 192 kb/s
Channel(s)                               : 2 channels
Channel layout                           : L R
Sampling rate                            : 48.0 kHz
Frame rate                               : 31.250 FPS (1536 SPF)
Bit depth                                : 16 bits
Compression mode                         : Lossy
Stream size                              : 128 MiB (1%)
Title                                    : Dub [NLO.TV], 2.0 [stereo] 192 Kbps
Language                                 : Ukrainian
Service kind                             : Complete Main
Default                                  : Yes
Forced                                   : No

Audio #2
ID                                       : 3
Format                                   : AC-3
Format/Info                              : Audio Coding 3
Commercial name                          : Dolby Digital
Codec ID                                 : A_AC3
Duration                                 : 1 h 33 min
Bit rate mode                            : Constant
Bit rate                                 : 192 kb/s
Channel(s)                               : 2 channels
Channel layout                           : L R
Sampling rate                            : 48.0 kHz
Frame rate                               : 31.250 FPS (1536 SPF)
Bit depth                                : 16 bits
Compression mode                         : Lossy
Stream size                              : 128 MiB (1%)
Title                                    : MVO [K1] 2.0 192 kbps [Hurtom-aalleexx85]
Language                                 : Ukrainian
Service kind                             : Complete Main
Default                                  : No
Forced                                   : No

Audio #3
ID                                       : 4
Format                                   : AC-3
Format/Info                              : Audio Coding 3
Commercial name                          : Dolby Digital
Codec ID                                 : A_AC3
Duration                                 : 1 h 33 min
Bit rate mode                            : Constant
Bit rate                                 : 192 kb/s
Channel(s)                               : 2 channels
Channel layout                           : L R
Sampling rate                            : 48.0 kHz
Frame rate                               : 31.250 FPS (1536 SPF)
Bit depth                                : 16 bits
Compression mode                         : Lossy
Stream size                              : 128 MiB (1%)
Title                                    : DVO [Novyj] 2.0 192 kbps [Hurtom-aalleexx85]
Language                                 : Ukrainian
Service kind                             : Complete Main
Default                                  : No
Forced                                   : No

Audio #4
ID                                       : 5
Format                                   : AC-3
Format/Info                              : Audio Coding 3
Commercial name                          : Dolby Digital
Codec ID                                 : A_AC3
Duration                                 : 1 h 33 min
Bit rate mode                            : Constant
Bit rate                                 : 192 kb/s
Channel(s)                               : 2 channels
Channel layout                           : L R
Sampling rate                            : 48.0 kHz
Frame rate                               : 31.250 FPS (1536 SPF)
Bit depth                                : 16 bits
Compression mode                         : Lossy
Stream size                              : 128 MiB (1%)
Title                                    : DVO [TET] 2.0 192 kbps [Hurtom-aalleexx85]
Language                                 : Ukrainian
Service kind                             : Complete Main
Default                                  : No
Forced                                   : No

Audio #5
ID                                       : 6
Format                                   : AC-3
Format/Info                              : Audio Coding 3
Commercial name                          : Dolby Digital
Codec ID                                 : A_AC3
Duration                                 : 1 h 33 min
Bit rate mode                            : Constant
Bit rate                                 : 384 kb/s
Channel(s)                               : 6 channels
Channel layout                           : L R C LFE Ls Rs
Sampling rate                            : 48.0 kHz
Frame rate                               : 31.250 FPS (1536 SPF)
Bit depth                                : 16 bits
Compression mode                         : Lossy
Stream size                              : 256 MiB (2%)
Title                                    : Original 5.1 384 kbps
Language                                 : English
Service kind                             : Complete Main
Default                                  : No
Forced                                   : No

Audio #6
ID                                       : 7
Format                                   : XLL
Format/Info                              : Digital Theater Systems
Commercial name                          : -HD Master Audio
Codec ID                                 : A_DTS
Duration                                 : 1 h 33 min
Bit rate mode                            : Variable
Bit rate                                 : 2 107 kb/s
Channel(s)                               : 2 channels
Channel layout                           : L R
Sampling rate                            : 48.0 kHz
Frame rate                               : 93.750 FPS (512 SPF)
Bit depth                                : 24 bits
Compression mode                         : Lossless
Stream size                              : 1.37 GiB (10%)
Title                                    : Original -HD Master 2.0 2107 kbps
Language                                 : English
Default                                  : No
Forced                                   : No

Text
ID                                       : 8
Format                                   : PGS
Muxing mode                              : zlib
Codec ID                                 : S_HDMV/PGS
Codec ID/Info                            : Picture based subtitle format used on BDs/HD-DVDs
Duration                                 : 1 h 32 min
Bit rate                                 : 39.8 kb/s
Count of elements                        : 2788
Stream size                              : 26.3 MiB (0%)
Language                                 : English
Default                                  : Yes
Forced                                   : No
Скріншоти





Джерела та подяки: &
українські доріжки - Sando7 (НЛО TV), aalleexx85 - синхронізація (дор.2-4), xslim, РОМЕО - запис з ТБ, MrRyanCooper - вчасно повідомив про трансляцію на К1; українізований постер - somnambula; інформація про озвучення - Віктор (всі - Гуртом).


Золотий реліз (завантажене не впливає на рейтинг)
 Трекер:    Зареєстрований   

Завантажити / скачати фільм українською



відео для новачків



 Зареєстрований:   2019-11-03 00:27
 Розмір:   13.87 GB 
 Оцінка фільму:   7.8/10 (Голосів: 9)
   
Custo 12 
Свій


З нами з: 08.11.16
Востаннє: 21.09.20
Повідомлень: 148

2019-11-04 18:55  
Пригадую, що навіть малому ніфіга смішно не було. Тупняк як він є.
Anonymous 







2019-11-09 01:30  
Custo 12 написано:
що навіть малому ніфіга смішно не було

не дуже дитяча комедія Happy

Mr.Mykhailo 
Новенький


З нами з: 19.06.19
Востаннє: 19.09.20
Повідомлень: 5

2019-11-09 01:47  
Симпатична комедія… з епохи Ван Вайлдера, Американського пирога, Євротура)
Ваш часовий пояс: GMT + 2 Години

Нова тема   Відповісти