Дікінсон (Сезон 1) / Dickinson (Season 1) (2019) 720p Eng | Sub Ukr/Eng

Нові коментарі

Нова тема   Відповісти
Автор Повідомлення
Anonymous 







2019-11-02 19:03  
Дікінсон (Сезон 1) / Dickinson (Season 1) (2019) 720p Eng | Sub Ukr/Eng


Жанр: комедія, драма
Країна: США


Кінокомпанія / телеканал: Tuning Fork Productions, Sugar 23, wiip / AppleTV+
Режисер: Девід Гордон Грін, Лінн Шелтон, Сайлас Говард, Стейсі Пассон
Актори: Хейлі Стенфілд, Анна Баришнікова, Едріан Енскоу, Елла Хант, Джейн Краковскі, Тобі Хасс та інші

Сюжет:

Чорна комедія про проблеми дорослішання, сім'ї та статі в консервативному суспільстві очима юної американської поетеси-бунтарки Емілі Дікінсон

Тривалість: 1 серія: 30:00 (цілком серій: 10)
Перелік серій
1. Я не шукала смерті... / Because I Could Not Stop
2. Я ніколи не бачила 'Вулканів' / I Have Never Seen 'Volcanoes'
3. Дикі ночі / Wild Nights
4. Я не можу побути сама... / Alone, I Cannot Be
5. Я боюся володіти тілом / I Am Afraid to Own a Body
6. Коротка, але терпляча хвороба... / A Brief But Patient Illness
7. Крок до поразки – перемога... / We Lose - Because We Win
8. Зимній день – буває – гляне... / There's a Certain Slant of Light
9. Чудова штука — віра... / 'Faith' Is a Fine Invention
10. Був похорон в моєму Мозку... / I Felt a Funeral, in My Brain
Якість:
Відео:
кодек:
розмір кадру: 1280 х 720
бітрейт: ~2820 кб/с

Аудіо # 1:
мова: англійська
переклад: оригінал
кодек: 5.1
бітрейт: 384 кб/с

Субтитри:
мова: українська
тип: програмні (м'які)
формат: *.srt

Субтитри:
мова: українська
тип: програмні (м'які) SDH для людей з вадами слуху
формат: *.srt

Субтитри:
мова: англійська
тип: програмні (м'які)
формат: *.srt
Info
General
General
Unique ID : 124845703164003571227172692950163982131 (0x5DEC68669315F079A87090CCFD490733)
Complete name : F:\Dickinson.S01.720p.ATVP..DD5.1.-TOMMY\Dickinson.S01E01.720p.ATVP..DD5.1.-TOMMY.
Format :
Format version : Version 4 / Version 2
File size : 802 MiB
Duration : 34 min 58 s
Overall bit rate : 3 205 kb/s
Encoded date : UTC 2019-11-02 16:25:24
Writing application : v31.0.0 ('Dolores In A Shoestand') 64-bit
Writing library : libebml v1.3.6 + v1.4.9

Video
ID : 1
Format : AVC
Format/Info : Advanced Video Codec
Format profile : [email protected]
Format settings : CABAC / 5 Ref Frames
Format settings, CABAC : Yes
Format settings, ReFrames : 5 frames
Codec ID : V_MPEG4/ISO/AVC
Duration : 34 min 57 s
Bit rate : 2 818 kb/s
Width : 1 280 pixels
Height : 720 pixels
Display aspect ratio : 16:9
Frame rate mode : Constant
Frame rate : 23.976 (23976/1000) FPS
Color space : YUV
Chroma subsampling : 4:2:0
Bit depth : 8 bits
Scan type : Progressive
Bits/(Pixel*Frame) : 0.128
Stream size : 705 MiB (88%)
Language : English
Default : Yes
Forced : No
Color range : Limited
Color primaries : BT.709
Transfer characteristics : BT.709
Matrix coefficients : BT.709

Audio
ID : 2
Format : AC-3
Format/Info : Audio Coding 3
Commercial name : Dolby Digital
Codec ID : A_AC3
Duration : 34 min 58 s
Bit rate mode : Constant
Bit rate : 384 kb/s
Channel(s) : 6 channels
Channel positions : Front: L C R, Side: L R, LFE
Sampling rate : 48.0 kHz
Frame rate : 31.250 FPS (1536 SPF)
Bit depth : 16 bits
Compression mode : Lossy
Stream size : 96.0 MiB (12%)
Language : English
Service kind : Complete Main
Default : Yes
Forced : No

Text #1
ID : 3
Format : UTF-8
Codec ID : S_TEXT/UTF8
Codec ID/Info : UTF-8 Plain Text
Duration : 33 min 30 s
Bit rate : 91 b/s
Count of elements : 480
Stream size : 22.4 KiB (0%)
Language : Ukrainian
Default : Yes
Forced : No

Text #2
ID : 4
Format : UTF-8
Codec ID : S_TEXT/UTF8
Codec ID/Info : UTF-8 Plain Text
Duration : 33 min 33 s
Bit rate : 98 b/s
Count of elements : 526
Stream size : 24.2 KiB (0%)
Title : SDH
Language : Ukrainian
Default : No
Forced : No

Text #3
ID : 5
Format : UTF-8
Codec ID : S_TEXT/UTF8
Codec ID/Info : UTF-8 Plain Text
Duration : 33 min 23 s
Bit rate : 60 b/s
Count of elements : 474
Stream size : 14.9 KiB (0%)
Language : English
Default : No
Forced : No
Скріншоти:
Джерело:
Особиста оцінка: 10 - без зайвих вагань рекомендую всім!


Бронзовий реліз (на рейтинг впливає 75% завантаженого)
 Трекер:    Зареєстрований   

Завантажити / скачати серіал українською



відео для новачків



 Зареєстрований:   2019-11-07 14:43
 Розмір:   6.72 GB 
 Оцінка серіалу:   9.4/10 (Голосів: 10)
   
Cartwright 
VIP


З нами з: 23.03.13
Востаннє: 01.12.20
Повідомлень: 393

2019-11-03 20:53  
Може Епл згодом ще й озвучку українську зробить до своїх серіалів.
leicheman 
Відео Гуртом - фільмокрай
Відео Гуртом - фільмокрай


З нами з: 03.07.14
Востаннє: 01.12.20
Повідомлень: 5697

2019-11-04 22:45  
Епл дуже гарно стартанули зі своїми серіали, я нічого такого не очікував від цього серіалу коли вмикали, але коли вже включив то не зміг зупинитися і подивився за один раз увесь сезон.
А хіп- хоп у серіал кумедно, але водночас пафосно і круто вписується 9/10

Accord_mc 
Новенький


З нами з: 04.12.14
Востаннє: 29.11.20
Повідомлень: 11

2019-11-05 18:31  
Вже доступний увесь сезон. Коли можна очікувати всі серії в даній роздачі?
Anonymous 







2019-11-07 14:46  
Врешті-решт весь сезон з'явився у мережі у 720p тож роздачу оновлено. Так само присутні як звичайні субтитри, так і субтитри для людей з вадами слуху.

Також маємо змогу (якщо будуть бажаючі) замовити озвучення цього серіалу у ДніпроФільм. Озвучення буде виконано у 4 професійні голоси. Вартість за серію, яку мені назвали -- 1600 гривень. Тобто за весь сезон 16 тисяч. Якщо хтось зацікавлений можете дописувати або написати в ПП.

mimimarvel 
Новенький


З нами з: 21.12.17
Востаннє: 28.11.20
Повідомлень: 4

2019-11-15 20:08  
Супер.
1 листопада тільки вийшов і вже є на Гуртом.
Дуже дякую!

DanyZemlyanoy 
Відео Гуртом - дизайнер
Відео Гуртом - дизайнер


З нами з: 02.07.16
Востаннє: 26.11.20
Повідомлень: 58

2020-03-23 16:15  
Хочу підвести всі проекти від Apple TV+ під один шаблон, тому тримайте український постер:
Дікінсон (Сезон 1) / Dickinson (Season 1) (2019)

Ваш часовий пояс: GMT + 2 Години

Нова тема   Відповісти