Хороші хлопці / Good Boys (2019) 1080p Ukr/Eng | Sub Eng

Нові коментарі

Нова тема   Відповісти
Автор Повідомлення
Anonymous 







2019-11-01 22:22  


Хороші хлопці / Good Boys (2019) 1080p Ukr/Eng | Sub Eng



Хороші хлопці / Good Boys (2019) 1080p Ukr/Eng | Sub Eng



«Приходь, якщо доріс до такого»



Жанр: комедія
Країна: США





Кінокомпанія: Good Universe, Point Grey Pictures, Universal Pictures
Режисер: Джин Ступніцкі
Актори: Джейкоб Трембле, Моллі Гордон, Вілл Форте, Ліл Релл, Енід-Рей Адамс, Брейді Нун


Сюжет:
Відпадна комедія від Сета Роґена і чуваків, які підігнали нам «Сусідів». Троє підлітків влаштовують свою першу «дорослу» вечірку. Готуючи цю епічну подію вони вештаються вулицями, шукають пригод на п'яту точку і потрапляють в халепи. У хлопців зовсім небагато часу, щоб розгребти кашу, яку заварили, доки не дізналися батьки…


Тривалість: 01:29:37
Якість: 1080p

Відео:
кодек:
розмір кадру: 1920 x 804
бітрейт: 14,3 Мб/с

Аудіо # 1:
мова: українська
переклад: професійний дубльований
кодек: 2.0 (стерео)
бітрейт: 192 кб/с

Аудіо # 2:
мова: англійська
переклад: оригінал
кодек: 5.1
бітрейт: 640 кб/с

Субтитри № 1 (Full):
мова: англійська
тип: програмні (м'які)
формат: *.srt

Info
Код:
General
Complete name                            : Good Boys (2019) 1080p [ukr_eng] [ViDeO_Hurtom].
Format                                   :
Format version                           : Version 4
File size                                : 9.47 GiB
Duration                                 : 1 h 29 min
Overall bit rate                         : 15.1 Mb/s
Encoded date                             : UTC 2020-01-27 14:45:00
Writing application                      : v30.1.0 ('Forever And More') 64-bit
Writing library                          : libebml v1.3.6 + v1.4.9
Cover                                    : Yes
Attachments                              : cover.jpg

Video
ID                                       : 1
Format                                   : AVC
Format/Info                              : Advanced Video Codec
Format profile                           : [email protected]
Format settings                          : CABAC / 5 Ref Frames
Format settings, CABAC                   : Yes
Format settings, RefFrames               : 5 frames
Codec ID                                 : V_MPEG4/ISO/AVC
Duration                                 : 1 h 29 min
Bit rate                                 : 14.3 Mb/s
Width                                    : 1 920 pixels
Height                                   : 804 pixels
Display aspect ratio                     : 2.40:1
Frame rate mode                          : Constant
Frame rate                               : 23.976 (24000/1001) FPS
Color space                              : YUV
Chroma subsampling                       : 4:2:0
Bit depth                                : 8 bits
Scan type                                : Progressive
Bits/(Pixel*Frame)                       : 0.386
Stream size                              : 8.95 GiB (94%)
Title                                    : playHD
Writing library                          : core 157 r2867+103 0d6443f t_mod_Custom_2 [[email protected] X86_64]
Encoding settings                        : cabac=1 / ref=5 / deblock=1:-3:-3 / analyse=0x3:0x133 / me=umh / subme=10 / psy=1 / fade_compensate=0.00 / psy_rd=1.05:0.00 / mixed_ref=1 / me_range=48 / chroma_me=1 / trellis=2 / 8x8dct=1 / cqm=0 / deadzone=21,11 / fast_pskip=0 / chroma_qp_offset=-2 / threads=24 / lookahead_threads=4 / sliced_threads=0 / nr=0 / decimate=0 / interlaced=0 / bluray_compat=0 / constrained_intra=0 / fgo=0 / bframes=8 / b_pyramid=2 / b_adapt=2 / b_bias=0 / direct=3 / weightb=1 / open_gop=0 / weightp=2 / keyint=250 / keyint_min=23 / scenecut=40 / intra_refresh=0 / rc_lookahead=60 / rc=crf / mbtree=0 / crf=15.9000 / qcomp=0.60 / qpmin=0:0:0 / qpmax=69:69:69 / qpstep=4 / vbv_maxrate=62500 / vbv_bufsize=78125 / crf_max=0.0 / nal_hrd=none / filler=0 / ip_ratio=1.30 / pb_ratio=1.20 / aq=3:0.87 / aq-sensitivity=10.00 / aq-factor=1.00:1.00:1.00 / aq2=0 / aq3=0 / zones=122770,128938,b=0.5
Language                                 : English
Default                                  : Yes
Forced                                   : No

Audio #1
ID                                       : 2
Format                                   : AC-3
Format/Info                              : Audio Coding 3
Commercial name                          : Dolby Digital
Codec ID                                 : A_AC3
Duration                                 : 1 h 29 min
Bit rate mode                            : Constant
Bit rate                                 : 192 kb/s
Channel(s)                               : 2 channels
Channel layout                           : L R
Sampling rate                            : 48.0 kHz
Frame rate                               : 31.250 FPS (1536 SPF)
Bit depth                                : 16 bits
Compression mode                         : Lossy
Stream size                              : 123 MiB (1%)
Title                                    : , 2.0, 192
Language                                 : Ukrainian
Service kind                             : Complete Main
Default                                  : Yes
Forced                                   : No

Audio #2
ID                                       : 3
Format                                   : AC-3
Format/Info                              : Audio Coding 3
Commercial name                          : Dolby Digital
Codec ID                                 : A_AC3
Duration                                 : 1 h 29 min
Bit rate mode                            : Constant
Bit rate                                 : 640 kb/s
Channel(s)                               : 6 channels
Channel layout                           : L R C LFE Ls Rs
Sampling rate                            : 48.0 kHz
Frame rate                               : 31.250 FPS (1536 SPF)
Bit depth                                : 16 bits
Compression mode                         : Lossy
Stream size                              : 410 MiB (4%)
Title                                    : , 5.1, 640
Language                                 : English
Service kind                             : Complete Main
Default                                  : No
Forced                                   : No

Text
ID                                       : 4
Format                                   : UTF-8
Codec ID                                 : S_TEXT/UTF8
Codec ID/Info                            : UTF-8 Plain Text
Duration                                 : 1 h 22 min
Bit rate                                 : 82 b/s
Count of elements                        : 1554
Stream size                              : 49.3 KiB (0%)
Language                                 : English
Default                                  : No
Forced                                   : No

Menu
00:00:00.000                             : en:00:00:00.000
00:03:54.025                             : en:00:03:54.025
00:09:00.165                             : en:00:09:00.165
00:11:51.169                             : en:00:11:51.169
00:15:08.658                             : en:00:15:08.658
00:17:29.840                             : en:00:17:29.840
00:21:20.696                             : en:00:21:20.696
00:27:27.646                             : en:00:27:27.646
00:31:25.675                             : en:00:31:25.675
00:35:06.104                             : en:00:35:06.104
00:40:11.868                             : en:00:40:11.868
00:47:16.208                             : en:00:47:16.208
00:51:01.183                             : en:00:51:01.183
00:57:54.388                             : en:00:57:54.388
01:02:27.953                             : en:01:02:27.953
01:06:46.544                             : en:01:06:46.544
01:09:56.901                             : en:01:09:56.901
01:14:19.497                             : en:01:14:19.497
01:20:00.796                             : en:01:20:00.796
01:23:35.427                             : en:01:23:35.427

Скріншоти




Джерело:
Особиста оцінка: 9 - давно не бачив настільки якісне кіно



 Трекер:    Зареєстрований   

Завантажити / скачати фільм українською



відео для новачків



 Зареєстрований:   2020-01-27 21:39
 Розмір:   9.47 GB 
 Оцінка фільму:   9.1/10 (Голосів: 100)
   
Інші релізи
   Хороші хлопці / Good Boys (2019) 720p Ukr/Eng | Sub Eng 11FrYkT  17 / 0   2.57 GB   2020-02-18 12:14 
   Хороші хлопці / Good Boys (2019) Remux 1080p Ukr/Eng | Sub Eng staf777  5 / 1   21.84 GB   2020-01-28 10:23 
   Хороші хлопці / Good Boys (2019) Ukr/Eng antik_2008  9 / 0   1.7 GB   2020-01-27 21:50 
   Хороші хлопці / Good Boys (2019) AVC Ukr/Eng | Sub Eng 11FrYkT  23 / 0   1.6 GB   2020-01-26 22:49 
tatopylys 
Свій


З нами з: 12.05.16
Востаннє: 03.06.20
Повідомлень: 63

2019-11-02 00:12  
мені фільм сподобався.таких комедій малувато останнім часом.
Highlander 
Новенький


З нами з: 22.12.09
Востаннє: 31.05.20
Повідомлень: 6

2019-11-03 00:27  
Супер кіно )) наржався.
Класно буде в компанії дивитися.
10 балів

kiboal 
Свій


З нами з: 25.12.14
Востаннє: 28.05.20
Повідомлень: 132

2019-11-03 01:26  
Це чисто підліткова комедія і щоб пройти рейтинг, була жорстка цензура.І як без цих трендів 2019... і тут згадали феменізм.Короче комедія як на вечір, такий собі варіант.А якщо вам до 16 ну норм, повинно зайти.
Поставив 4 більше вона не тягне.

alexcaptain 
Свій


З нами з: 20.03.14
Востаннє: 31.05.20
Повідомлень: 115

2019-11-03 17:43  
Таке собі підліткове кіно, якби забрати всі не гарні слова та предмети з цього фільму, то вийшов би середній фільм для дітей-підлітків. А так не можна переглядати з дітьми до 18р. Чекав більшого
Estranded 
VIP


З нами з: 09.02.14
Востаннє: 03.06.20
Повідомлень: 1473

2019-11-03 18:29  
На диво, смішна комедія. Було кілька моментів коли добряче посміявся.
Хоча тематика специфічна, не всім зайде.
6/10 — на один разок норм!

Anonymous 







2019-11-04 00:10  
Крутий фільм.
taurus_21 
Новенький


З нами з: 27.10.16
Востаннє: 03.06.20
Повідомлень: 15

2019-11-04 13:45  
який тупняк Sad (1)
Custo 12 
Свій


З нами з: 08.11.16
Востаннє: 02.06.20
Повідомлень: 141

2019-11-04 21:02  
Файно знято! Як комедії початку 2000-х. Трохи дитячий, але зайшов на ура.
XideBr0 
Новенький


З нами з: 04.10.10
Востаннє: 03.06.20
Повідомлень: 6

2019-11-05 22:31  
Це нереально смiшно!!! Було декiлька моментiв, коли ми з дружиною просто плакали вiд смiху))))))))
service 
Новенький


З нами з: 02.07.18
Востаннє: 03.06.20
Повідомлень: 11

2019-11-06 10:01  
Так собі, фільм. Та щей підрядили на зйомки дітей. Для чого підліткам в 12 років знати про: цитати-" фолоімітатори, дрючити в зад, трахатись, купувати наркотики ", ну і тд. Чому вчить цей фільм не зрозуміло. Це фільм для дорослих, з рейтингом від +18. Наприклад мені, було б соромно дивитись цей фільм зі своєю старшою дочкою 14років. Не показував.
AnkaPartizanka 
Поважний учасник


З нами з: 08.01.17
Востаннє: 03.06.20
Повідомлень: 173

2019-11-06 10:53  
service
Так у фільму рейтинг R

luke kamin 
Новенький


З нами з: 28.12.12
Востаннє: 01.06.20
Повідомлень: 1

2019-11-06 10:58  
Вітаю, чому в мене не відтворюються фільми? Прошу допомогти , у якому форматі відтворювати. Дякую.
san40wolf1 
Новенький


З нами з: 05.03.18
Востаннє: 29.04.20
Повідомлень: 4

2019-11-07 23:36  
Фільм реально крутий. Проста і одночасно дуже весела комедія.
waldi-hurtom 
VIP


З нами з: 07.10.12
Востаннє: 03.06.20
Повідомлень: 1138

2019-11-16 22:14  
Гадав, чергова дебільна комедія про підлітків. Виявилось, що не зовсім дебільна і навіть смішна. Навіть очима старпера - є глибинний стьоб і почуття гумору. 7 з 10. Як для підліткового жанру - взагалі шедевр. Можна дивитися в будь-якому віці від 2 до 102 усім, крім канонічно-правовірних ханж і святенників РПЦ, які не знають, що фалоімітатор походить від грецького слова фалос і є значно старішим за християнство.
repetitor1986 
Новенький


З нами з: 02.10.13
Востаннє: 01.06.20
Повідомлень: 13

2019-11-25 12:14  
Не підлітковий, а дитячий. Жарти доволі "вузькі", поведінка акторів на рівні поведінки равлика та інших тварин з м/ф. Не рекомендую.
Mamtsegray 
Новенький


З нами з: 24.02.19
Востаннє: 03.06.20
Повідомлень: 2

2020-01-12 16:46  
Бомбезни фільм)) не клішова комедія, таких мало
Anonymous 







2020-01-13 22:48  
Заміна відео на 
severstudio 
Новенький


З нами з: 17.12.16
Востаннє: 16.04.20
Повідомлень: 1

2020-01-15 21:07  
Не зайшов! Діти уверещались, витримав 20 хвилин...
Тanya 
Новенький


З нами з: 16.05.15
Востаннє: 28.02.20
Повідомлень: 7

2020-01-17 22:58  
Сміялися з чоловіком до сліз )))
Капонір 
Новенький


З нами з: 01.04.17
Востаннє: 03.06.20
Повідомлень: 4

2020-01-18 23:05  
Лівацьке лайно. Мат перемат, фільм про недоумків для недоумків.
+380954897458 
VIP


З нами з: 02.06.17
Востаннє: 03.06.20
Повідомлень: 847

2020-01-19 00:59  
Капонір
От що означає лівацьке, поясніть мені дурному?

Капонір 
Новенький


З нами з: 01.04.17
Востаннє: 03.06.20
Повідомлень: 4

2020-01-19 16:21  
+380954897458
Лівацьке, це коли все з ніг на голову. Коли жінки як чоловіки і навпаки. Коли діти ведуть себе як угашені відморозки сорокарічні. Коли у жінок відсосали... що цікаво у жінки можна відсосати? Це то саме що з дупи народити.

+380954897458 
VIP


З нами з: 02.06.17
Востаннє: 03.06.20
Повідомлень: 847

2020-01-20 01:18  
Капонір
Ви, мабуть, не зрозуміли що дивитеся комедію. Я не бачу у фільмі того, про що Ви писали. Стрічка про дітей, які поступово стають дорослими. Вони намагаються знайти своє місце серед ровесників, затвердити свій статус, але нічого не знають про життя. Звідси й непорозуміння стосовно жіночої анатомії, які звучали дуже кумедно і безневинно, до речі. Якщо фільм для недоумків, то я один із них, можете мене привітати (або поспівчувати). Wide grin

Anonymous 







2020-01-27 21:40  
Торент файл оновлено. Заміна аудіо на якісніше.
mystakaev 
Новенький


З нами з: 04.07.10
Востаннє: 26.05.20
Повідомлень: 22

2020-01-30 02:42  
Після таких відгуків обов'язково подивлюсь)
Ваш часовий пояс: GMT + 2 Години

Нова тема   Відповісти