Angry Birds у кіно 2 / The Angry Birds Movie 2 (2019) Remux 1080p Ukr/Eng | Sub Ukr/Eng

Нові коментарі

Нова тема   Відповісти
Автор Повідомлення
Anonymous 







2019-11-01 11:32  
Angry Birds у кіно 2 / The Angry Birds Movie 2 (2019) Remux 1080p Ukr/Eng | Sub Ukr/Eng

Angry Birds у кіно 2 / The Angry Birds Movie 2 (2019) Remux 1080p Ukr/Eng | Sub Ukr/Eng
Усі українські постери:


















«Цього літа настає зима»


Жанр: комедія, мультфільм, пригодницький, сімейний
Країна: США, Фінляндія



Кінокомпанія: Sony Pictures Animation, Rovio Entertainment
Режисер: Туроп Ван Орман
Актори: Джейсон Судейкіс, Джош Гад, Леслі Джонс, Білл Хейдер, Рейчел Блум, Аквафіна, Стерлінг К. Браун, Еухеніо Дербес, Тіффані Хеддіш, Денні МакБрайд

Сюжет:
Коли на горизонті з'являється нова загроза, яка несе небезпеку і для острова пташок, і для острова свинок, Ред, Чак, Бомб і Могутній орел вербують сестру Чака Сільвер і об'єднуються зі свинями Леонардом, його асистенткою Кортні і вченим Геррі, щоб укласти хитке перемир'я заради порятунку свого дому.


Тривалість: 01:36:47
Якість: Remux 1080p

Відео:
кодек:
розмір кадру: 1920x1080
бітрейт: ~22700 кб/с

Аудіо # 1:
мова: українська
переклад: професійний дубльований | студія LeDoyen
кодек: 2.0
бітрейт: 192 кб/с
Інформація про дубляж:

Ред - Дмитро Бузинський
Сріблинка - Антоніна Хижняк
Чак - Євген Кошовий
Бомб - Юрій Крапов
Леонард - Богдан Бенюк
Ґлен - Володимир Ніколаєнко
Зета - Катерина Башкіна-Зленко
Могутній Орел - Андрій Твердак
Фуксія - Соня Плакидюк
Матильда - Олена Кравець
та інші.

Фільм дубльовано студією LeDoyen на замовлення компанії B&H Film Distribution у 2019 році.
Аудіо # 2:
мова: англійська
переклад: оригінал
кодек: -HD MA 5.1
бітрейт: 2296 кб/с

Субтитри: (Full)
мова: українська
тип: програмні (м'які)
формат: *.srt

Субтитри: (Full, SDH)
мова: англійська
тип: програмні (м'які)
формат: *.srt
Info
Код:
General
Complete name                            : The Angry Birds Movie 2 (2019) Remux 1080p [Ukr_Eng] [Video_Hurtom].
Format                                   :
Format version                           : Version 4
File size                                : 17.0 GiB
Duration                                 : 1 h 36 min
Overall bit rate mode                    : Variable
Overall bit rate                         : 25.2 Mb/s
Encoded date                             : UTC 2019-11-01 09:11:31
Writing application                      : v30.1.0 ('Forever And More') 64-bit
Writing library                          : libebml v1.3.6 + v1.4.9
Cover                                    : Yes
Attachments                              : cover.jpg

Video
ID                                       : 1
Format                                   : AVC
Format/Info                              : Advanced Video Codec
Format profile                           : [email protected]
Format settings                          : CABAC / 2 Ref Frames
Format settings, CABAC                   : Yes
Format settings, RefFrames               : 2 frames
Format settings, GOP                     : M=1, N=10
Codec ID                                 : V_MPEG4/ISO/AVC
Duration                                 : 1 h 36 min
Bit rate mode                            : Variable
Bit rate                                 : 22.7 Mb/s
Width                                    : 1 920 pixels
Height                                   : 1 080 pixels
Display aspect ratio                     : 16:9
Frame rate mode                          : Constant
Frame rate                               : 23.976 (24000/1001) FPS
Color space                              : YUV
Chroma subsampling                       : 4:2:0
Bit depth                                : 8 bits
Scan type                                : Progressive
Bits/(Pixel*Frame)                       : 0.456
Stream size                              : 15.3 GiB (90%)
Language                                 : English
Default                                  : Yes
Forced                                   : No

Audio #1
ID                                       : 2
Format                                   : AC-3
Format/Info                              : Audio Coding 3
Commercial name                          : Dolby Digital
Codec ID                                 : A_AC3
Duration                                 : 1 h 36 min
Bit rate mode                            : Constant
Bit rate                                 : 192 kb/s
Channel(s)                               : 2 channels
Channel layout                           : L R
Sampling rate                            : 48.0 kHz
Frame rate                               : 31.250 FPS (1536 SPF)
Bit depth                                : 16 bits
Compression mode                         : Lossy
Stream size                              : 133 MiB (1%)
Title                                    : C3, 2 ch, 192 Кбт/с
Language                                 : Ukrainian
Service kind                             : Complete Main
Default                                  : Yes
Forced                                   : No

Audio #2
ID                                       : 3
Format                                   : XLL
Format/Info                              : Digital Theater Systems
Commercial name                          : -HD Master Audio
Codec ID                                 : A_DTS
Duration                                 : 1 h 36 min
Bit rate mode                            : Variable
Bit rate                                 : 2 296 kb/s
Channel(s)                               : 6 channels
Channel layout                           : C L R Ls Rs LFE
Sampling rate                            : 48.0 kHz
Frame rate                               : 93.750 FPS (512 SPF)
Bit depth                                : 16 bits
Compression mode                         : Lossless
Stream size                              : 1.55 GiB (9%)
Title                                    : -HD MA, 6 ch, 2296 Кбт/с
Language                                 : English
Default                                  : No
Forced                                   : No

Text #1
ID                                       : 4
Format                                   : UTF-8
Codec ID                                 : S_TEXT/UTF8
Codec ID/Info                            : UTF-8 Plain Text
Duration                                 : 1 h 36 min
Bit rate                                 : 86 b/s
Count of elements                        : 1373
Stream size                              : 61.1 KiB (0%)
Title                                    : Full
Language                                 : Ukrainian
Default                                  : No
Forced                                   : No

Text #2
ID                                       : 5
Format                                   : UTF-8
Codec ID                                 : S_TEXT/UTF8
Codec ID/Info                            : UTF-8 Plain Text
Duration                                 : 1 h 27 min
Bit rate                                 : 67 b/s
Count of elements                        : 1322
Stream size                              : 43.4 KiB (0%)
Title                                    : Full
Language                                 : English
Default                                  : No
Forced                                   : No

Text #3
ID                                       : 6
Format                                   : UTF-8
Codec ID                                 : S_TEXT/UTF8
Codec ID/Info                            : UTF-8 Plain Text
Duration                                 : 1 h 34 min
Bit rate                                 : 80 b/s
Count of elements                        : 1759
Stream size                              : 56.0 KiB (0%)
Title                                    : SDH
Language                                 : English
Default                                  : No
Forced                                   : No

Menu
00:00:00.000                             : en:Chapter 01
00:05:19.486                             : en:Chapter 02
00:12:05.892                             : en:Chapter 03
00:18:52.673                             : en:Chapter 04
00:24:11.867                             : en:Chapter 05
00:28:46.683                             : en:Chapter 06
00:34:48.461                             : en:Chapter 07
00:40:10.158                             : en:Chapter 08
00:47:10.828                             : en:Chapter 09
00:52:56.382                             : en:Chapter 10
00:58:04.690                             : en:Chapter 11
01:04:36.122                             : en:Chapter 12
01:09:55.650                             : en:Chapter 13
01:15:40.286                             : en:Chapter 14
01:21:11.116                             : en:Chapter 15
01:26:26.848                             : en:Chapter 16
Скріншоти


Джерело:
Особиста оцінка: 0 - не дивився


Золотий реліз (завантажене не впливає на рейтинг)
 Трекер:    Зареєстрований   

Завантажити / скачати мультфільм українською



відео для новачків



 Зареєстрований:   2019-11-01 11:32
 Розмір:   17.03 GB 
 Оцінка мультфільму:   9.6/10 (Голосів: 16)
   
bot 
робот


З нами з: 30.09.07
Востаннє: 26.05.05
Повідомлень: 23395

2019-11-01 11:33  
Тему перенесено з Фільми в HD до форуму Мультфільми в HD


antik_2008

sanyokfuriv 
Свій


З нами з: 05.07.11
Востаннє: 27.02.20
Повідомлень: 59

2019-11-01 17:53  
станьте на роздачу агов !!!!

Додано через 2 години 18 хвилин 5 секунд:

В чому проблема?? Чому роздає лише 50 кб/с?

Lite_an 
Новенький


З нами з: 02.01.15
Востаннє: 27.02.20
Повідомлень: 19

2019-11-02 22:58  
Дякувати, що реда озвучив інший дублер, а то першу частину важко було дивитись.
takispravi 
Свій


З нами з: 24.10.13
Востаннє: 26.02.20
Повідомлень: 75

2019-11-12 09:00  
sanyokfuriv
а ти вибагливий

Ваш часовий пояс: GMT + 2 Години

Нова тема   Відповісти