Шлях додому / A Dog's Way Home (2019) 1080p H.265 Ukr/Eng | Sub Ukr/Eng

Нові коментарі

Нова тема   Відповісти
Автор Повідомлення
Anonymous 







2019-11-01 11:30  
Шлях додому / A Dog's Way Home (2019) 1080p H.265 Ukr/Eng | Sub Ukr/Eng

Шлях додому / A Dog's Way Home (2019) 1080p H.265 Ukr/Eng | Sub Ukr/Eng


Жанр: мелодрама, сімейний
Країна: США
Кінокомпанія: Bona Film Group, Columbia Pictures, Pariah
Режисер: Чарльз Мартін Сміт
Актори: Брайс Даллас Говард, Ешлі Джадд, Едвард Джеймс Олмос, Александра Шипп, Крістофер Бавер, Беррі Вотсон, Вес Студі, Джон Кассіні

Сюжет:
Знайомтеся, Белла! Це весела та грайлива собака, яка обожнює смачненьке, досліджувати світ і ганятись за білками. Та одного разу її життя перевертається з ніг на голову – вона відбивається від дому. Назустріч пригодам, долаючи труднощі і величезні відстані, Белла будь-що має повернутися до людини, якій віддана усім серцем. Ходімо із нею!

Тривалість: 01:35:53
Якість: (Власний Rip)

Відео:
кодек: H.265 (HEVC)
розмір кадру: 1920 x 804
бітрейт: 7 399 кб/с
бітова глибина: 10 біт

Увага! Перед завантаженням переконайтесь, що ваш пристрій відтворення (та/або ПЗ) підтримує H.265 (HEVC)

Аудіо # 1:
мова: українська
переклад: професійний дубльований
кодек: AC-3 5.1
бітрейт: 640 кб/с

Аудіо # 2:
мова: англійська
переклад: оригінал
кодек: 5.1
бітрейт: 1510 кб/с

Субтитри # 1-2: (Forced, Full)
мова: українська
тип: програмні (м'які)
формат: *.srt

Субтитри # 3: (SDH)
мова: англійська
тип: програмні (м'які)
формат: *.srt


Info
Код:
General
Unique ID                                : 140344528742784251445534070950211666766 (0x69955F7FCA2246AEE5C3AB97D7ECC34E)
Complete name                            : A Dog's Way Home (2019) 1080p H.265 [UKR_ENG] [Hurtom].
Format                                   :
Format version                           : Version 4
File size                                : 6.40 GiB
Duration                                 : 1 h 35 min
Overall bit rate                         : 9 552 kb/s
Movie name                               : Шлях додому / A Dog's Way Home (2019)
Encoded date                             : UTC 2019-10-31 20:59:31
Writing application                      : v20.0.0 ('I Am The Sun') 64-bit
Writing library                          : libebml v1.3.5 + v1.4.8
Cover                                    : Yes
Attachments                              : Cover.jpg

Video
ID                                       : 1
Format                                   : HEVC
Format/Info                              : High Efficiency Video Coding
Format profile                           : Main [email protected]@High
Codec ID                                 : V_MPEGH/ISO/HEVC
Duration                                 : 1 h 35 min
Bit rate                                 : 7 399 kb/s
Width                                    : 1 920 pixels
Height                                   : 804 pixels
Display aspect ratio                     : 2.40:1
Frame rate mode                          : Constant
Frame rate                               : 23.976 (24000/1001) FPS
Color space                              : YUV
Chroma subsampling                       : 4:2:0
Bit depth                                : 10 bits
Bits/(Pixel*Frame)                       : 0.200
Stream size                              : 4.96 GiB (77%)
Title                                    : Шлях додому / A Dog's Way Home (2019)
Writing library                          : x265 3.1+11-de920e0a3183:[Windows][clang 8.0.0][64 bit] 10bit
Encoding settings                        : cpuid=1111039 / frame-threads=9 / numa-pools=8 / wpp / no-pmode / no-pme / no-psnr / no-ssim / log-level=3 / input-csp=1 / input-res=1920x804 / interlace=0 / total-frames=0 / level-idc=51 / high-tier=1 / uhd-bd=0 / ref=5 / allow-non-conformance / no-repeat-headers / annexb / no-aud / no-hrd / info / hash=0 / no-temporal-layers / open-gop / min-keyint=24 / keyint=240 / gop-lookahead=0 / bframes=8 / b-adapt=2 / b-pyramid / bframe-bias=0 / rc-lookahead=40 / lookahead-slices=5 / scenecut=40 / radl=0 / no-splice / no-intra-refresh / ctu=64 / min-cu-size=8 / rect / amp / max-tu-size=32 / tu-inter-depth=4 / tu-intra-depth=4 / limit-tu=0 / rdoq-level=2 / dynamic-rd=0.00 / no-ssim-rd / signhide / no-tskip / nr-intra=0 / nr-inter=0 / no-constrained-intra / no-strong-intra-smoothing / max-merge=3 / limit-refs=1 / no-limit-modes / me=3 / subme=7 / merange=57 / temporal-mvp / no-hme / weightp / weightb / no-analyze-src-pics / deblock=-3:-3 / no-sao / no-sao-non-deblock / rd=6 / no-early-skip / rskip / no-fast-intra / no-tskip-fast / no-cu-lossless / b-intra / no-splitrd-skip / rdpenalty=0 / psy-rd=2.00 / psy-rdoq=1.00 / no-rd-refine / no-lossless / cbqpoffs=0 / crqpoffs=0 / rc=crf / crf=18.0 / qcomp=0.65 / qpstep=4 / stats-write=0 / stats-read=0 / vbv-maxrate=50000 / vbv-bufsize=50000 / vbv-init=0.9 / crf-max=30.0 / crf-min=0.0 / ipratio=1.40 / pbratio=1.30 / aq-mode=1 / aq-strength=1.00 / cutree / zone-count=0 / no-strict-cbr / qg-size=32 / no-rc-grain / qpmax=69 / qpmin=0 / no-const-vbv / sar=1 / overscan=0 / videoformat=5 / range=0 / colorprim=2 / transfer=2 / colormatrix=2 / chromaloc=0 / display-window=0cll=0,0 / min-luma=0 / max-luma=1023 / log2-max-poc-lsb=8 / vui-timing-info / vui-hrd-info / slices=1 / no-opt-qp-pps / no-opt-ref-list-length-pps / no-multi-pass-opt-rps / scenecut-bias=0.05 / no-opt-cu-delta-qp / no-aq-motion / no-hdr / no-hdr-opt / no-dhdr10-opt / no-idr-recovery-sei / analysis-reuse-level=5 / scale-factor=0 / refine-intra=0 / refine-inter=0 / refine-mv=0 / refine-ctu-distortion=0 / no-limit-sao / ctu-info=0 / no-lowpass-dct / refine-analysis-type=0 / copy-pic=1 / max-ausize-factor=1.0 / no-dynamic-refine / no-single-sei / no-hevc-aq / no-svt / no-field / qp-adaptation-range=1.00
Default                                  : Yes
Forced                                   : No
Color range                              : Limited

Audio #1
ID                                       : 2
Format                                   : AC-3
Format/Info                              : Audio Coding 3
Commercial name                          : Dolby Digital
Codec ID                                 : A_AC3
Duration                                 : 1 h 35 min
Bit rate mode                            : Constant
Bit rate                                 : 640 kb/s
Channel(s)                               : 6 channels
Channel layout                           : L R C LFE Ls Rs
Sampling rate                            : 48.0 kHz
Frame rate                               : 31.250 FPS (1536 SPF)
Bit depth                                : 16 bits
Compression mode                         : Lossy
Stream size                              : 439 MiB (7%)
Title                                    : / 5.1 Ch / 640 kbps / ПД / Blu-Ray
Language                                 : Ukrainian
Service kind                             : Complete Main
Default                                  : Yes
Forced                                   : Yes

Audio #2
ID                                       : 3
Format                                   :
Format/Info                              : Digital Theater Systems
Codec ID                                 : A_DTS
Duration                                 : 1 h 35 min
Bit rate mode                            : Constant
Bit rate                                 : 1 509 kb/s
Channel(s)                               : 6 channels
Channel layout                           : C L R Ls Rs LFE
Sampling rate                            : 48.0 kHz
Frame rate                               : 93.750 FPS (512 SPF)
Bit depth                                : 16 bits
Compression mode                         : Lossy
Stream size                              : 1.01 GiB (16%)
Title                                    : / 5.1 Ch / 1509 kbps / Original
Language                                 : English
Default                                  : No
Forced                                   : No

Text #1
ID                                       : 4
Format                                   : UTF-8
Codec ID                                 : S_TEXT/UTF8
Codec ID/Info                            : UTF-8 Plain Text
Duration                                 : 1 h 24 min
Bit rate                                 : 0 b/s
Count of elements                        : 6
Stream size                              : 282 Bytes (0%)
Title                                    : Forced
Language                                 : Ukrainian
Default                                  : Yes
Forced                                   : Yes

Text #2
ID                                       : 5
Format                                   : UTF-8
Codec ID                                 : S_TEXT/UTF8
Codec ID/Info                            : UTF-8 Plain Text
Duration                                 : 1 h 34 min
Bit rate                                 : 71 b/s
Count of elements                        : 1139
Stream size                              : 49.5 KiB (0%)
Title                                    : Full
Language                                 : Ukrainian
Default                                  : No
Forced                                   : No

Text #3
ID                                       : 6
Format                                   : UTF-8
Codec ID                                 : S_TEXT/UTF8
Codec ID/Info                            : UTF-8 Plain Text
Duration                                 : 1 h 29 min
Bit rate                                 : 60 b/s
Count of elements                        : 1413
Stream size                              : 39.8 KiB (0%)
Title                                    : SDH
Language                                 : English
Default                                  : No
Forced                                   : No

Menu
00:00:00.000                             : en:Chapter 1
00:06:45.113                             : en:Chapter 2
00:11:38.114                             : en:Chapter 3
00:18:29.358                             : en:Chapter 4
00:21:30.956                             : en:Chapter 5
00:27:09.419                             : en:Chapter 6
00:33:17.871                             : en:Chapter 7
00:39:45.133                             : en:Chapter 8
00:48:28.823                             : en:Chapter 9
00:53:55.774                             : en:Chapter 10
01:01:23.513                             : en:Chapter 11
01:06:28.193                             : en:Chapter 12
01:10:10.289                             : en:Chapter 13
01:15:09.505                             : en:Chapter 14
01:17:34.608                             : en:Chapter 15
01:24:09.962                             : en:Chapter 16
Світлини




Джерело: &
Особиста оцінка: 0 - не дивився


 Трекер:    Зареєстрований   

Завантажити / скачати фільм українською



відео для новачків



 Зареєстрований:   2019-11-01 11:30
 Розмір:   6.4 GB 
 Оцінка фільму:   8/10 (Голосів: 7)
   
Інші релізи
   Шлях додому / A Dog's Way Home (2019) Remux 1080p Ukr/Eng | Sub Ukr/Eng staf777  5 / 0   18.39 GB   2019-05-28 17:03 
   Шлях додому / A Dog's Way Home (2019) 1080p Ukr/Eng | Sub Ukr/Eng staf777  6 / 0   10.18 GB   2019-05-28 16:32 
   Шлях додому / A Dog's Way Home (2019) AVC Ukr/Eng | Sub Ukr/Eng 11FrYkT  17 / 0   1.87 GB   2019-05-25 15:45 
   Шлях додому / A Dog's Way Home (2019) 720p Ukr/Eng | Sub Ukr/Eng 11FrYkT  7 / 4   4.14 GB   2019-05-24 22:54 
   Шлях додому / A Dog's Way Home (2019) antik_2008  13 / 0   1.51 GB   2019-05-24 18:04 
Ваш часовий пояс: GMT + 2 Години

Нова тема   Відповісти