Ріо / Rio (2011) 1080р H.265 2xUkr/Eng | Sub Ukr/Eng

Нові коментарі

Нова тема   Відповісти
Автор Повідомлення
Anonymous 







2019-11-01 10:26  
Ріо / Rio (2011) 1080р H.265 2xUkr/Eng | Sub Ukr/Eng

Ріо / Rio (2011) 1080р H.265 2xUkr/Eng | Sub Ukr/Eng


Жанр: анімація, пригодницький, комедія, сімейний
Країна: США
Кінокомпанія: Blue Sky Studios, Twentieth Century Fox Animation
Режисер: Карлос Салдана
Ролі озвучують: Келлі Кітон, Джессі Айзенберг, Ванда Сайкс, Джеймі Фокс, Ен Хетеуей.

Сюжет:
Красивий і дуже недалекий папуга, що народився у неволі в невеликому містечку штату Міннесота, летить у пошуках пригод, на батьківщину предків, в Ріо-де-Жанейро.

Тривалість: 01:35:57
Якість:

Відео:
кодек: H.265 (HEVC)
розмір кадру: 1920 x 800
бітрейт: 5 432 кб/с
бітова глибина: 10 біт

Увага! Перед завантаженням переконайтесь, що ваш пристрій відтворення (та/або ПЗ) підтримує H.265 (HEVC)

Аудіо # 1:
мова: українська
переклад: професійний дубльований
кодек: AC-3 5.1
бітрейт: 448 кб/с

Аудіо # 2:
мова: українська
переклад: професійний дубльований
кодек: AC-3 2.0
бітрейт: 192 кб/с

Аудіо # 3:
мова: англійська
переклад: оригінал
кодек: 5.1
бітрейт: 1510 кб/с

Субтитри # 1: (Full)
мова: українська
тип: програмні (м'які)
формат: *.srt

Субтитри # 2: (Full)
мова: англійська
тип: програмні (м'які)
формат: *.srt


Info
Код:
General
Unique ID                                : 301726719416149759677859252141406425089 (0xE2FE73D020BA4458C0FA1E6351DA1001)
Complete name                            : Rio (2011) 1080p H.265 [2xUKR_ENG] [Hurtom].
Format                                   :
Format version                           : Version 4
File size                                : 5.08 GiB
Duration                                 : 1 h 35 min
Overall bit rate                         : 7 586 kb/s
Movie name                               : Ріо / Rio (2011)
Encoded date                             : UTC 2020-02-23 23:04:33
Writing application                      : v20.0.0 ('I Am The Sun') 64-bit
Writing library                          : libebml v1.3.5 + v1.4.8
Cover                                    : Yes
Attachments                              : Cover.jpg

Video
ID                                       : 1
Format                                   : HEVC
Format/Info                              : High Efficiency Video Coding
Format profile                           : Main [email protected]@High
Codec ID                                 : V_MPEGH/ISO/HEVC
Duration                                 : 1 h 35 min
Bit rate                                 : 5 432 kb/s
Width                                    : 1 920 pixels
Height                                   : 800 pixels
Display aspect ratio                     : 2.40:1
Frame rate mode                          : Constant
Frame rate                               : 23.976 (23976/1000) FPS
Original frame rate                      : 23.976 (24000/1001) FPS
Color space                              : YUV
Chroma subsampling                       : 4:2:0
Bit depth                                : 10 bits
Bits/(Pixel*Frame)                       : 0.147
Stream size                              : 3.64 GiB (72%)
Title                                    : Ріо / Rio (2011)
Writing library                          : x265 2.8+19-bcdc610cf5f0:[Windows][GCC 7.3.0][64 bit] 10bit
Encoding settings                        : cpuid=1111039 / frame-threads=13 / numa-pools=12 / wpp / no-pmode / no-pme / no-psnr / no-ssim / log-level=3 / input-csp=1 / input-res=1920x800 / interlace=0 / total-frames=0 / level-idc=51 / high-tier=1 / uhd-bd=0 / ref=6 / allow-non-conformance / no-repeat-headers / annexb / no-aud / no-hrd / info / hash=0 / no-temporal-layers / open-gop / min-keyint=24 / keyint=240 / gop-lookahead=0 / bframes=10 / b-adapt=2 / b-pyramid / bframe-bias=0 / rc-lookahead=60 / lookahead-slices=5 / scenecut=40 / radl=0 / no-intra-refresh / ctu=64 / min-cu-size=8 / no-rect / no-amp / max-tu-size=32 / tu-inter-depth=3 / tu-intra-depth=3 / limit-tu=0 / rdoq-level=0 / dynamic-rd=0.00 / no-ssim-rd / signhide / no-tskip / nr-intra=0 / nr-inter=0 / no-constrained-intra / strong-intra-smoothing / max-merge=3 / limit-refs=3 / no-limit-modes / me=3 / subme=7 / merange=64 / temporal-mvp / weightp / weightb / no-analyze-src-pics / deblock=-3:-3 / no-sao / no-sao-non-deblock / rd=4 / no-early-skip / rskip / no-fast-intra / no-tskip-fast / no-cu-lossless / no-b-intra / no-splitrd-skip / rdpenalty=0 / psy-rd=2.00 / psy-rdoq=0.00 / no-rd-refine / no-lossless / cbqpoffs=0 / crqpoffs=0 / rc=crf / crf=17.0 / qcomp=0.60 / qpstep=1 / stats-write=0 / stats-read=0 / vbv-maxrate=160000 / vbv-bufsize=160000 / vbv-init=0.9 / crf-max=30.0 / crf-min=0.0 / ipratio=1.40 / pbratio=1.30 / aq-mode=3 / aq-strength=0.80 / cutree / zone-count=0 / no-strict-cbr / qg-size=32 / no-rc-grain / qpmax=69 / qpmin=0 / no-const-vbv / sar=1 / overscan=0 / videoformat=5 / range=0 / colorprim=2 / transfer=2 / colormatrix=2 / chromaloc=0 / display-window=0 / max-cll=0,0 / min-luma=0 / max-luma=1023 / log2-max-poc-lsb=8 / vui-timing-info / vui-hrd-info / slices=1 / no-opt-qp-pps / no-opt-ref-list-length-pps / no-multi-pass-opt-rps / scenecut-bias=0.05 / no-opt-cu-delta-qp / no-aq-motion / no-hdr / no-hdr-opt / no-dhdr10-opt / no-idr-recovery-sei / analysis-reuse-level=5 / scale-factor=0 / refine-intra=0 / refine-inter=0 / refine-mv=0 / no-limit-sao / ctu-info=0 / no-lowpass-dct / refine-mv-type=0 / copy-pic=1 / max-ausize-factor=1.0 / no-dynamic-refine / no-single-sei
Default                                  : Yes
Forced                                   : No

Audio #1
ID                                       : 2
Format                                   : AC-3
Format/Info                              : Audio Coding 3
Commercial name                          : Dolby Digital
Codec ID                                 : A_AC3
Duration                                 : 1 h 35 min
Bit rate mode                            : Constant
Bit rate                                 : 448 kb/s
Channel(s)                               : 6 channels
Channel layout                           : L R C LFE Ls Rs
Sampling rate                            : 48.0 kHz
Frame rate                               : 31.250 FPS (1536 SPF)
Compression mode                         : Lossy
Stream size                              : 307 MiB (6%)
Title                                    : / 5.1 Ch / 448 kbps / ПД / Blu-Ray
Language                                 : Ukrainian
Service kind                             : Complete Main
Default                                  : Yes
Forced                                   : Yes

Audio #2
ID                                       : 3
Format                                   : AC-3
Format/Info                              : Audio Coding 3
Commercial name                          : Dolby Digital
Codec ID                                 : A_AC3
Duration                                 : 1 h 35 min
Bit rate mode                            : Constant
Bit rate                                 : 192 kb/s
Channel(s)                               : 2 channels
Channel layout                           : L R
Sampling rate                            : 48.0 kHz
Frame rate                               : 31.250 FPS (1536 SPF)
Compression mode                         : Lossy
Stream size                              : 132 MiB (3%)
Title                                    : / 2.0 Ch / 192 kbps / ПД / TET
Language                                 : Ukrainian
Service kind                             : Complete Main
Default                                  : No
Forced                                   : No

Audio #3
ID                                       : 4
Format                                   :
Format/Info                              : Digital Theater Systems
Codec ID                                 : A_DTS
Duration                                 : 1 h 35 min
Bit rate mode                            : Constant
Bit rate                                 : 1 509 kb/s
Channel(s)                               : 6 channels
Channel layout                           : C L R Ls Rs LFE
Sampling rate                            : 48.0 kHz
Frame rate                               : 93.750 FPS (512 SPF)
Bit depth                                : 24 bits
Compression mode                         : Lossy
Delay relative to video                  : 11 ms
Stream size                              : 1.01 GiB (20%)
Title                                    : / 5.1 Ch / 1509 kbps / Original
Language                                 : English
Default                                  : No
Forced                                   : No

Text #1
ID                                       : 5
Format                                   : UTF-8
Codec ID                                 : S_TEXT/UTF8
Codec ID/Info                            : UTF-8 Plain Text
Duration                                 : 1 h 34 min
Bit rate                                 : 70 b/s
Count of elements                        : 1328
Stream size                              : 48.4 KiB (0%)
Title                                    : Full
Language                                 : Ukrainian
Default                                  : Yes
Forced                                   : No

Text #2
ID                                       : 6
Format                                   : UTF-8
Codec ID                                 : S_TEXT/UTF8
Codec ID/Info                            : UTF-8 Plain Text
Duration                                 : 1 h 34 min
Bit rate                                 : 51 b/s
Count of elements                        : 1314
Stream size                              : 35.4 KiB (0%)
Title                                    : Full
Language                                 : English
Default                                  : No
Forced                                   : No

Menu
00:00:00.000                             : en:00:00:00.000
00:06:34.853                             : en:00:06:34.853
00:12:16.569                             : en:00:12:16.569
00:16:13.139                             : en:00:16:13.139
00:21:29.497                             : en:00:21:29.497
00:23:46.008                             : en:00:23:46.008
00:28:57.194                             : en:00:28:57.194
00:34:11.841                             : en:00:34:11.841
00:36:53.461                             : en:00:36:53.461
00:39:27.615                             : en:00:39:27.615
00:43:17.762                             : en:00:43:17.762
00:45:48.454                             : en:00:45:48.454
00:50:03.083                             : en:00:50:03.083
00:52:58.217                             : en:00:52:58.217
00:57:37.287                             : en:00:57:37.287
01:00:49.646                             : en:01:00:49.646
01:03:39.691                             : en:01:03:39.691
01:07:57.365                             : en:01:07:57.365
01:11:47.512                             : en:01:11:47.512
01:15:32.027                             : en:01:15:32.027
01:19:40.943                             : en:01:19:40.943
01:21:19.333                             : en:01:21:19.333
01:23:43.477                             : en:01:23:43.477
01:26:38.902                             : en:01:26:38.902
Світлини




Джерело: &
Особиста оцінка: 10 - без зайвих вагань рекомендую всім!


 Трекер:    Зареєстрований   

Завантажити / скачати мультфільм українською



відео для новачків



 Зареєстрований:   2020-02-24 02:57
 Розмір:   5.08 GB 
 Оцінка мультфільму:   9.3/10 (Голосів: 16)
   
Інші релізи
   Ріо / Rio (2011) AVC 3xUkr/Eng | Sub Ukr/Eng Gingеrbread  6 / 0   2.53 GB   2020-07-18 13:25 
   Ріо / Rio (2011) 1080р Ukr/Eng | Sub Eng kvvdvd  9 / 0   7.33 GB   2016-11-22 02:03 
   Ріо / Rio (2011) 720p Ukr/Eng | Sub Ukr/Eng (60fps) Drool  1 / 0   7.86 GB   2014-07-08 07:56 
   Ріо / Rio (2011) 720p Ukr/Eng | Sub Ukr/Eng Dim-ON  3 / 0   4.33 GB   2011-12-04 23:49 
   Ріо / Rio (2011) FaB0SS  2 / 0   745 MB   2011-08-11 19:15 
   Ріо / Rio (2011) 720p-mini Drool  1 / 0   1.39 GB   2011-07-10 10:05 
   Ріо / Rio (2011) [iPod Touch,480x200] Бузьок  0 / 0   283 MB   2011-06-11 20:31 
varan7777 
Новенький


З нами з: 31.01.16
Востаннє: 04.10.20
Повідомлень: 2

2020-02-23 20:10  
Дякую за фільм. Але прохання конвертуйте в нормальному форматі щоб телевізор міг розпізнати. Що це за що не підтримується.... Для чого такий формат взагалі записувати....
azpekt 
Новенький


З нами з: 18.06.14
Востаннє: 07.11.20
Повідомлень: 21

2020-02-23 21:04  
дякую за фільм!

varan7777 - чого ви ниєте? переконвертуйте в той, який подобається, хоч в VHS.

Anonymous 







2020-02-24 02:57  
Додано доріжку від та укр. субтитри.
-VJ- 
VIP


З нами з: 01.11.09
Востаннє: 28.02.21
Повідомлень: 794

2020-02-27 01:41  
varan7777 написано:
конвертуйте в нормальному форматі щоб телевізор міг розпізнати


В "нормальному" форматі - в інших роздачах, навчіться вже трекером користуватися.

Ваш часовий пояс: GMT + 2 Години

Нова тема   Відповісти