Ріо 2 / Rio 2 (2014) 1080p H.265 Ukr/Eng | Sub Ukr/Eng

Нові коментарі

Нова тема   Відповісти
Автор Повідомлення
Anonymous 







2019-11-01 10:24  
Ріо 2 / Rio 2 (2014) 1080p H.265 Ukr/Eng | Sub Ukr/Eng

Ріо 2 / Rio 2 (2014) 1080p H.265 Ukr/Eng | Sub Ukr/Eng


Жанр: анімація, пригодницький, комедія, сімейний
Країна: США
Кінокомпанія: Twentieth Century Fox Animation, Blue Sky Studios
Режисер: Карлос Салдана / Carlos Saldanha
Актори: Енн Гетевей / Anne Hathaway, Джесі Айзенберґ / Jesse Eisenberg, Леслі Ман / Leslie Mann, Джеймі Фокс / Jamie Foxx, Родріґо Санторо / Rodrigo Santoro, Джемейн Клемент / Jemaine Clement, Джон Леґуізамо / John Leguizamo та інші

Сюжет:
Блю, Джевел і їх троє дітей живуть щасливим життям в чарівному місті Ріо-де-Жанейро. Коли Джевел вирішує, що їх дітям потрібно навчитися жити як справжнім птахам, вона наполягає на авантюрній поїздці в нетрі річки Амазонки. Там, намагаючись вписатися в нове оточення, Блю починає турбуватися, що може втратити Джевел і дітей, що йдуть на поклик дикої природи...

Тривалість: 01:41:11
Якість:

Відео:
кодек: H.265 (HEVC)
розмір кадру: 1920 x 800
бітрейт: 5 692 кб/с
бітова глибина: 10 біт

Увага! Перед завантаженням переконайтесь, що ваш пристрій відтворення (та/або ПЗ) підтримує H.265 (HEVC)

Аудіо # 1:
мова: українська
переклад: професійний дубльований
кодек: AC-3 5.1
бітрейт: 448 кб/с

Аудіо # 2:
мова: англійська
переклад: оригінал
кодек: 5.1
бітрейт: 1510 кб/с

Субтитри # 1: (Full)
мова: українська
тип: програмні (м'які)
формат: *.srt

Субтитри # 2: (Full)
мова: англійська
тип: програмні (м'які)
формат: *.srt


Info
Код:
General
Unique ID                                : 49065478639680051632386790246342458351 (0x24E9AADE511A0A480EF50BD6DC93FBEF)
Complete name                            : Rio 2 (2014) 1080p H.265 [UKR_ENG] [Hurtom].
Format                                   :
Format version                           : Version 4
File size                                : 5.41 GiB
Duration                                 : 1 h 41 min
Overall bit rate                         : 7 652 kb/s
Movie name                               : Ріо 2 / Rio 2 (2014)
Encoded date                             : UTC 2019-10-29 23:16:05
Writing application                      : v20.0.0 ('I Am The Sun') 64-bit
Writing library                          : libebml v1.3.5 + v1.4.8
Cover                                    : Yes
Attachments                              : Cover.jpg

Video
ID                                       : 1
Format                                   : HEVC
Format/Info                              : High Efficiency Video Coding
Format profile                           : Main [email protected]@High
Codec ID                                 : V_MPEGH/ISO/HEVC
Duration                                 : 1 h 41 min
Bit rate                                 : 5 692 kb/s
Width                                    : 1 920 pixels
Height                                   : 800 pixels
Display aspect ratio                     : 2.40:1
Frame rate mode                          : Constant
Frame rate                               : 23.976 (23976/1000) FPS
Original frame rate                      : 23.976 (24000/1001) FPS
Color space                              : YUV
Chroma subsampling                       : 4:2:0
Bit depth                                : 10 bits
Bits/(Pixel*Frame)                       : 0.155
Stream size                              : 4.02 GiB (74%)
Title                                    : Ріо 2 / Rio 2 (2014)
Writing library                          : x265 2.8+19-bcdc610cf5f0:[Windows][GCC 7.3.0][64 bit] 10bit
Encoding settings                        : cpuid=1111039 / frame-threads=13 / numa-pools=12 / wpp / no-pmode / no-pme / no-psnr / no-ssim / log-level=3 / input-csp=1 / input-res=1920x800 / interlace=0 / total-frames=0 / level-idc=51 / high-tier=1 / uhd-bd=0 / ref=6 / allow-non-conformance / no-repeat-headers / annexb / no-aud / no-hrd / info / hash=0 / no-temporal-layers / open-gop / min-keyint=24 / keyint=240 / gop-lookahead=0 / bframes=10 / b-adapt=2 / b-pyramid / bframe-bias=0 / rc-lookahead=60 / lookahead-slices=5 / scenecut=40 / radl=0 / no-intra-refresh / ctu=64 / min-cu-size=8 / no-rect / no-amp / max-tu-size=32 / tu-inter-depth=3 / tu-intra-depth=3 / limit-tu=0 / rdoq-level=0 / dynamic-rd=0.00 / no-ssim-rd / signhide / no-tskip / nr-intra=0 / nr-inter=0 / no-constrained-intra / strong-intra-smoothing / max-merge=3 / limit-refs=3 / no-limit-modes / me=3 / subme=7 / merange=64 / temporal-mvp / weightp / weightb / no-analyze-src-pics / deblock=-3:-3 / no-sao / no-sao-non-deblock / rd=4 / no-early-skip / rskip / no-fast-intra / no-tskip-fast / no-cu-lossless / no-b-intra / no-splitrd-skip / rdpenalty=0 / psy-rd=2.00 / psy-rdoq=0.00 / no-rd-refine / no-lossless / cbqpoffs=0 / crqpoffs=0 / rc=crf / crf=18.0 / qcomp=0.60 / qpstep=1 / stats-write=0 / stats-read=0 / vbv-maxrate=160000 / vbv-bufsize=160000 / vbv-init=0.9 / crf-max=30.0 / crf-min=0.0 / ipratio=1.40 / pbratio=1.30 / aq-mode=3 / aq-strength=0.80 / cutree / zone-count=0 / no-strict-cbr / qg-size=32 / no-rc-grain / qpmax=69 / qpmin=0 / no-const-vbv / sar=1 / overscan=0 / videoformat=5 / range=0 / colorprim=2 / transfer=2 / colormatrix=2 / chromaloc=0 / display-window=0 / max-cll=0,0 / min-luma=0 / max-luma=1023 / log2-max-poc-lsb=8 / vui-timing-info / vui-hrd-info / slices=1 / no-opt-qp-pps / no-opt-ref-list-length-pps / no-multi-pass-opt-rps / scenecut-bias=0.05 / no-opt-cu-delta-qp / no-aq-motion / no-hdr / no-hdr-opt / no-dhdr10-opt / no-idr-recovery-sei / analysis-reuse-level=5 / scale-factor=0 / refine-intra=0 / refine-inter=0 / refine-mv=0 / no-limit-sao / ctu-info=0 / no-lowpass-dct / refine-mv-type=0 / copy-pic=1 / max-ausize-factor=1.0 / no-dynamic-refine / no-single-sei
Default                                  : Yes
Forced                                   : No

Audio #1
ID                                       : 2
Format                                   : AC-3
Format/Info                              : Audio Coding 3
Commercial name                          : Dolby Digital
Codec ID                                 : A_AC3
Duration                                 : 1 h 41 min
Bit rate mode                            : Constant
Bit rate                                 : 448 kb/s
Channel(s)                               : 6 channels
Channel layout                           : L R C LFE Ls Rs
Sampling rate                            : 48.0 kHz
Frame rate                               : 31.250 FPS (1536 SPF)
Bit depth                                : 16 bits
Compression mode                         : Lossy
Stream size                              : 324 MiB (6%)
Title                                    : / 5.1 Ch / 448 kbps / ПД / Blu-Ray
Language                                 : Ukrainian
Service kind                             : Complete Main
Default                                  : Yes
Forced                                   : Yes

Audio #2
ID                                       : 3
Format                                   : ES
Format/Info                              : Digital Theater Systems
Commercial name                          : -ES Matrix
Codec ID                                 : A_DTS
Duration                                 : 1 h 41 min
Bit rate mode                            : Constant
Bit rate                                 : 1 509 kb/s
Channel(s)                               : 6 channels
Channel(s)_Original                      : 7 channels
ChannelLayout_Original                   : C L R Ls Rs Cs LFE
Sampling rate                            : 48.0 kHz
Frame rate                               : 93.750 FPS (512 SPF)
Bit depth                                : 24 bits
Compression mode                         : Lossy
Delay relative to video                  : 33 ms
Stream size                              : 1.07 GiB (20%)
Title                                    : / 5.1 Ch / 1509 kbps / Original
Language                                 : English
Default                                  : No
Forced                                   : No

Text #1
ID                                       : 4
Format                                   : UTF-8
Codec ID                                 : S_TEXT/UTF8
Codec ID/Info                            : UTF-8 Plain Text
Duration                                 : 1 h 31 min
Bit rate                                 : 105 b/s
Count of elements                        : 1497
Stream size                              : 70.5 KiB (0%)
Title                                    : Full
Language                                 : Ukrainian
Default                                  : No
Forced                                   : No

Text #2
ID                                       : 5
Format                                   : UTF-8
Codec ID                                 : S_TEXT/UTF8
Codec ID/Info                            : UTF-8 Plain Text
Duration                                 : 1 h 31 min
Bit rate                                 : 64 b/s
Count of elements                        : 1509
Stream size                              : 43.5 KiB (0%)
Title                                    : Full
Language                                 : English
Default                                  : No
Forced                                   : No

Menu
00:00:00.000                             : en:00:00:00.000
00:03:10.816                             : en:00:03:10.816
00:05:14.314                             : en:00:05:14.314
00:08:49.362                             : en:00:08:49.362
00:13:02.240                             : en:00:13:02.240
00:17:36.305                             : en:00:17:36.305
00:19:19.408                             : en:00:19:19.408
00:22:30.349                             : en:00:22:30.349
00:26:48.690                             : en:00:26:48.690
00:29:00.155                             : en:00:29:00.155
00:30:59.691                             : en:00:30:59.691
00:33:46.566                             : en:00:33:46.566
00:36:34.192                             : en:00:36:34.192
00:39:20.233                             : en:00:39:20.233
00:41:32.657                             : en:00:41:32.657
00:45:05.119                             : en:00:45:05.119
00:47:23.090                             : en:00:47:23.090
00:49:58.162                             : en:00:49:58.162
00:52:05.456                             : en:00:52:05.456
00:55:38.919                             : en:00:55:38.919
00:58:10.904                             : en:00:58:10.904
01:02:11.394                             : en:01:02:11.394
01:04:38.083                             : en:01:04:38.083
01:07:03.937                             : en:01:07:03.937
01:09:18.196                             : en:01:09:18.196
01:10:21.342                             : en:01:10:21.342
01:15:17.763                             : en:01:15:17.763
01:17:00.157                             : en:01:17:00.157
01:21:41.855                             : en:01:21:41.855
01:25:24.619                             : en:01:25:24.619
01:29:42.711                             : en:01:29:42.711
01:32:27.959                             : en:01:32:27.959
Світлини




Джерело: &
Особиста оцінка: 10 - без зайвих вагань рекомендую всім!


 Трекер:    Зареєстрований   

Завантажити / скачати мультфільм українською



відео для новачків



 Зареєстрований:   2019-11-01 10:24
 Розмір:   5.41 GB 
 Оцінка мультфільму:   9.7/10 (Голосів: 12)
   
Інші релізи
   Ріо 2 / Rio 2 (2014) AVC Ukr/Eng | Sub Ukr/Eng patriot2305  13 / 0   2.28 GB   2020-07-26 10:52 
   Ріо 2 / Rio 2 (2014) 1080p 3D [Half OverUnder] Ukr/Eng | Sub Ukr/Eng -VipeR-  0 / 0   7.18 GB   2016-02-07 12:30 
   Ріо 2 / Rio 2 (2014) 720p-mini (60fps) Drool  2 / 0   3.4 GB   2014-07-05 11:08 
   Ріо 2 / Rio 2 (2014) 1080p Ukr/Eng | Sub Ukr/Eng 11FrYkT  12 / 1   8.24 GB   2014-07-04 09:43 
   Ріо 2 / Rio 2 (2014) 720p Ukr/Eng | Sub Ukr/Eng 11FrYkT  6 / 0   3.93 GB   2014-07-04 08:35 
Ваш часовий пояс: GMT + 2 Години

Нова тема   Відповісти