Зіткнення з безоднею / Deep Impact (1998) 1080p H.265 Ukr/Eng | Sub Eng

Нові коментарі

Нова тема   Відповісти
Автор Повідомлення
Anonymous 







2019-11-01 11:19  
Зіткнення з безоднею / Deep Impact (1998) 1080p H.265 Ukr/Eng | Sub Eng

Зіткнення з безоднею / Deep Impact (1998) 1080p H.265 Ukr/Eng | Sub Eng


Жанр: фантастика, катастрофа, трилер, драма
Країна: США
Кінокомпанія: Paramount Pictures, DreamWorks SKG, Zanuck/Brown Productions
Режисер: Мімі Ледер / Mimi Leder
Актори: Роберт Дювалл / Robert Duvall, Морган Фрімен / Morgan Freeman, Теа Леоні / Tea Leoni, Ванесса Редгрейв / Vanessa Redgrave, Елайджа Вуд / Elijah Wood, Лілі Собескі / Leelee Sobieski, Мері МакКормак / Mary McCormack, Блер Андервуд / Blair Underwood, Рон Елдард / Ron Eldard, Джон Фавро / Jon Favreau, Максимільян Шелл / Maximilian Schell, Брюс Вайтц / Bruce Weitz, Бетсі Брентлі / Betsy Brantley, О'Ніл Комптон / O'Neal Compton, Річард Шіфф / Richard Schiff, Деніз Кросбі / Denise Crosby, Лора Іннес / Laura Innes, Дугрей Скотт / Dougray Scott, Гері Вернц / Gary Werntz, Райа Кілстедт / Rya Kihlstedt, Джеймс Кромуелл / James Cromwell, Олександр Балуєв.

Сюжет:
Що б Ви почали робити, коли б дізналися, що незабаром величезна комета зіткнется з Землею, і всьому людству загрожує неминуча загибель? Відлік часу до судного дня вже почався. Президент США повідомляє світу, що до «зіткнення з безоднею» залишається рік. На комету направляють корабль «Месія» який повинен підірвати комету. Але від вибуху комета разлітається на дві частини. Ніщо не може врятувати людство. Як поведуть себе люди?...

Тривалість: 02:01:11
Якість:

Відео:
кодек: H.265 (HEVC)
розмір кадру: 1920 x 816
бітрейт: 7 648 кб/с
бітова глибина: 10 біт

Увага! Перед завантаженням переконайтесь, що ваш пристрій відтворення (та/або ПЗ) підтримує H.265 (HEVC)

Аудіо # 1:
мова: українська
переклад: багатоголосий закадровий
кодек: AC-3 5.1
бітрейт: 384 кб/с

Аудіо # 2:
мова: англійська
переклад: оригінал
кодек: AC-3 5.1
бітрейт: 640 кб/с

Субтитри # 1: (Full)
мова: англійська
тип: програмні (м'які)
формат: *.srt


Info
Код:
General
Unique ID                                : 307901425952557874639595014597103128694 (0xE7A3A859884B83F0DB5A2264CE5D1076)
Complete name                            : Deep Impact (1998) 1080p H.265 [UKR_ENG] [Hurtom].
Format                                   :
Format version                           : Version 4
File size                                : 7.34 GiB
Duration                                 : 2 h 1 min
Overall bit rate                         : 8 675 kb/s
Movie name                               : Зіткнення з безоднею / Deep Impact (1998)
Encoded date                             : UTC 2019-10-31 21:07:21
Writing application                      : v20.0.0 ('I Am The Sun') 64-bit
Writing library                          : libebml v1.3.5 + v1.4.8
Cover                                    : Yes
Attachments                              : Cover.jpg

Video
ID                                       : 1
Format                                   : HEVC
Format/Info                              : High Efficiency Video Coding
Format profile                           : Main [email protected]@High
Codec ID                                 : V_MPEGH/ISO/HEVC
Duration                                 : 2 h 1 min
Bit rate                                 : 7 648 kb/s
Width                                    : 1 920 pixels
Height                                   : 816 pixels
Display aspect ratio                     : 2.35:1
Frame rate mode                          : Constant
Frame rate                               : 23.976 (24000/1001) FPS
Color space                              : YUV
Chroma subsampling                       : 4:2:0
Bit depth                                : 10 bits
Bits/(Pixel*Frame)                       : 0.204
Stream size                              : 6.47 GiB (88%)
Title                                    : Зіткнення з безоднею / Deep Impact (1998)
Writing library                          : x265 3.2+5-354901970679:[Windows][clang 8.0.1][64 bit] 10bit
Encoding settings                        : cpuid=1049583 / frame-threads=5 / numa-pools=4 / wpp / no-pmode / no-pme / no-psnr / no-ssim / log-level=3 / input-csp=1 / input-res=1920x816 / interlace=0 / total-frames=0 / level-idc=41 / high-tier=1 / uhd-bd=0 / ref=5 / allow-non-conformance / no-repeat-headers / annexb / no-aud / no-hrd / info / hash=0 / no-temporal-layers / open-gop / min-keyint=24 / keyint=240 / gop-lookahead=0 / bframes=12 / b-adapt=2 / b-pyramid / bframe-bias=0 / rc-lookahead=40 / lookahead-slices=5 / scenecut=40 / radl=0 / no-splice / no-intra-refresh / ctu=32 / min-cu-size=8 / no-rect / no-amp / max-tu-size=32 / tu-inter-depth=4 / tu-intra-depth=4 / limit-tu=1 / rdoq-level=1 / dynamic-rd=0.00 / no-ssim-rd / signhide / no-tskip / nr-intra=0 / nr-inter=0 / no-constrained-intra / no-strong-intra-smoothing / max-merge=5 / limit-refs=1 / no-limit-modes / me=3 / subme=7 / merange=57 / temporal-mvp / no-frame-dup / no-hme / weightp / no-weightb / no-analyze-src-pics / deblock=-3:-3 / no-sao / no-sao-non-deblock / rd=3 / selective-sao=0 / early-skip / no-rskip / no-fast-intra / no-tskip-fast / no-cu-lossless / b-intra / no-splitrd-skip / rdpenalty=0 / psy-rd=2.00 / psy-rdoq=1.00 / no-rd-refine / no-lossless / cbqpoffs=0 / crqpoffs=0 / rc=crf / crf=20.0 / qcomp=0.60 / qpstep=4 / stats-write=0 / stats-read=0 / vbv-maxrate=50000 / vbv-bufsize=50000 / vbv-init=0.9 / crf-max=0.0 / crf-min=0.0 / ipratio=1.40 / pbratio=1.30 / aq-mode=3 / aq-strength=1.00 / no-cutree / zone-count=0 / no-strict-cbr / qg-size=32 / no-rc-grain / qpmax=69 / qpmin=0 / no-const-vbv / sar=1 / overscan=0 / videoformat=5 / range=0 / colorprim=1 / transfer=1 / colormatrix=1 / chromaloc=0 / display-window=0 / cll=0,0 / min-luma=0 / max-luma=1023 / log2-max-poc-lsb=8 / vui-timing-info / vui-hrd-info / slices=1 / no-opt-qp-pps / no-opt-ref-list-length-pps / no-multi-pass-opt-rps / scenecut-bias=0.05 / no-opt-cu-delta-qp / no-aq-motion / no-hdr / no-hdr-opt / no-dhdr10-opt / no-idr-recovery-sei / analysis-reuse-level=5 / scale-factor=0 / refine-intra=0 / refine-inter=0 / refine-mv=1 / refine-ctu-distortion=0 / no-limit-sao / ctu-info=0 / no-lowpass-dct / refine-analysis-type=0 / copy-pic=1 / max-ausize-factor=1.0 / no-dynamic-refine / no-single-sei / no-hevc-aq / no-svt / no-field / qp-adaptation-range=1.00
Language                                 : English
Default                                  : Yes
Forced                                   : No
Color range                              : Limited
Color primaries                          : BT.709
Transfer characteristics                 : BT.709
Matrix coefficients                      : BT.709

Audio #1
ID                                       : 2
Format                                   : AC-3
Format/Info                              : Audio Coding 3
Commercial name                          : Dolby Digital
Codec ID                                 : A_AC3
Duration                                 : 2 h 1 min
Bit rate mode                            : Constant
Bit rate                                 : 384 kb/s
Channel(s)                               : 6 channels
Channel layout                           : L R C LFE Ls Rs
Sampling rate                            : 48.0 kHz
Frame rate                               : 31.250 FPS (1536 SPF)
Bit depth                                : 16 bits
Compression mode                         : Lossy
Stream size                              : 333 MiB (4%)
Title                                    : / 5.1 Ch / 384 kbps / БЗ / ICTV
Language                                 : Ukrainian
Service kind                             : Complete Main
Default                                  : Yes
Forced                                   : Yes

Audio #2
ID                                       : 3
Format                                   : AC-3
Format/Info                              : Audio Coding 3
Commercial name                          : Dolby Digital
Codec ID                                 : A_AC3
Duration                                 : 2 h 1 min
Bit rate mode                            : Constant
Bit rate                                 : 640 kb/s
Channel(s)                               : 6 channels
Channel layout                           : L R C LFE Ls Rs
Sampling rate                            : 48.0 kHz
Frame rate                               : 31.250 FPS (1536 SPF)
Bit depth                                : 16 bits
Compression mode                         : Lossy
Stream size                              : 555 MiB (7%)
Title                                    : / 5.1 Ch / 640 kbps / Original
Language                                 : English
Service kind                             : Complete Main
Default                                  : No
Forced                                   : No

Text
ID                                       : 4
Format                                   : UTF-8
Codec ID                                 : S_TEXT/UTF8
Codec ID/Info                            : UTF-8 Plain Text
Duration                                 : 1 h 51 min
Bit rate                                 : 63 b/s
Count of elements                        : 1362
Stream size                              : 52.0 KiB (0%)
Title                                    : Full
Language                                 : English
Default                                  : No
Forced                                   : No

Menu
00:00:00.000                             : :Chapter 1
00:02:37.615                             : :Chapter 2
00:07:01.754                             : :Chapter 3
00:10:53.942                             : :Chapter 4
00:17:10.988                             : :Chapter 5
00:20:37.861                             : :Chapter 6
00:22:21.631                             : :Chapter 7
00:25:28.026                             : :Chapter 8
00:35:00.931                             : :Chapter 9
00:39:13.266                             : :Chapter 10
00:43:58.885                             : :Chapter 11
00:51:49.021                             : :Chapter 12
00:56:17.539                             : :Chapter 13
01:00:15.777                             : :Chapter 14
01:05:01.813                             : :Chapter 15
01:09:42.219                             : :Chapter 16
01:13:53.345                             : :Chapter 17
01:18:10.600                             : :Chapter 18
01:20:08.301                             : :Chapter 19
01:22:52.466                             : :Chapter 20
01:25:20.323                             : :Chapter 21
01:27:46.844                             : :Chapter 22
01:31:53.591                             : :Chapter 23
01:34:23.073                             : :Chapter 24
01:38:45.042                             : :Chapter 25
01:40:55.421                             : :Chapter 26
01:43:22.279                             : :Chapter 27
01:46:15.118                             : :Chapter 28
01:51:43.488                             : :Chapter 29
01:53:23.837                             : :Chapter 30
Світлини




Джерело: &
Особиста оцінка: 0 - не дивився


Срібний реліз (на рейтинг впливає 50% завантаженого)
 Трекер:    Зареєстрований   

Завантажити / скачати фільм українською



відео для новачків



 Зареєстрований:   2019-11-01 11:19
 Розмір:   7.34 GB 
 Оцінка фільму:   9.3/10 (Голосів: 3)
   
Інші релізи
Ваш часовий пояс: GMT + 2 Години

Нова тема   Відповісти