Поклик вовка / Le chant du loup (2019) 1080p H.265 Ukr/Fre | Sub Eng/Fre

Нові коментарі

Нова тема   Відповісти
Автор Повідомлення
Anonymous 







2019-10-31 23:40  
Поклик вовка / Le chant du loup (2019) 1080p H.265 Ukr/Fre | Sub Eng/Fre

Поклик вовка / Le chant du loup (2019) 1080p H.265 Ukr/Fre | Sub Eng/Fre


Жанр: екшн, трилер
Країна: Франція
Кінокомпанія: Pathé, Trésor Films, Chi-Fou-Mi Productions
Режисер: Антонін Бодрі/Antonin Baudry (псевдонім - Абель Ланзак)
Актори: Франсуа Сівіль, Омар Сі, Мат'є Кассовіц, Реда Катеб, Паула Бір, Жан-Ів Бертело, Демієн Боннар

Сюжет:
Події розгортаються на борту підводного човна. Серед екіпажу є унікальна людина (Франсуа Сівіль) - він здатний чути найменші звуки, а всі види звуків, які він чув хоча б раз, він може впізнати. Його звуть «Золоте вухо». Але одного разу слух підводить героя, через його помилки мало не гине весь екіпаж. Бажаючи реабілітуватися, він мимоволі виявиться в центрі конфлікту, виправити який навряд чи кому під силу.

Тривалість: 01:55:45
Якість:

Відео:
кодек: H.265 (HEVC)
розмір кадру: 1920 x 800
бітрейт: 6 825 кб/с
бітова глибина: 10 біт

Увага! Перед завантаженням переконайтесь, що ваш пристрій відтворення (та/або ПЗ) підтримує H.265 (HEVC)

Аудіо # 1:
мова: українська
переклад: професійний дубльований
кодек: AC-3 2.0
бітрейт: 192 кб/с

Аудіо # 2:
мова: французька
переклад: оригінал
кодек: 5.1
бітрейт: 1510 кб/с

Субтитри # 1: (Full)
мова: англійська
тип: програмні (м'які)
формат: *.srt

Субтитри # 2: (SDH)
мова: французька
тип: програмні (м'які)
формат: *.srt


Info
Код:
General
Unique ID                                : 105043574409405806023086699035147317475 (0x4F06A81323DBD63EF8509C26FB0F30E3)
Complete name                            : Le chant du loup (2019) 1080p H.265 [UKR_FRE] [Hurtom].
Format                                   :
Format version                           : Version 4
File size                                : 6.90 GiB
Duration                                 : 1 h 55 min
Overall bit rate                         : 8 528 kb/s
Movie name                               : Поклик вовка / Le chant du loup (2019)
Encoded date                             : UTC 2019-10-31 20:25:56
Writing application                      : v20.0.0 ('I Am The Sun') 64-bit
Writing library                          : libebml v1.3.5 + v1.4.8
Cover                                    : Yes
Attachments                              : cover.jpg

Video
ID                                       : 1
Format                                   : HEVC
Format/Info                              : High Efficiency Video Coding
Format profile                           : Main [email protected]@High
Codec ID                                 : V_MPEGH/ISO/HEVC
Duration                                 : 1 h 55 min
Bit rate                                 : 6 824 kb/s
Width                                    : 1 920 pixels
Height                                   : 800 pixels
Display aspect ratio                     : 2.40:1
Frame rate mode                          : Constant
Frame rate                               : 23.976 (24000/1001) FPS
Color space                              : YUV
Chroma subsampling                       : 4:2:0
Bit depth                                : 10 bits
Bits/(Pixel*Frame)                       : 0.185
Stream size                              : 5.52 GiB (80%)
Title                                    : Поклик вовка / Le chant du loup (2019)
Language                                 : English
Default                                  : Yes
Forced                                   : No
Color range                              : Limited
Color primaries                          : BT.709
Transfer characteristics                 : BT.709
Matrix coefficients                      : BT.709

Audio #1
ID                                       : 2
Format                                   : AC-3
Format/Info                              : Audio Coding 3
Commercial name                          : Dolby Digital
Codec ID                                 : A_AC3
Duration                                 : 1 h 55 min
Bit rate mode                            : Constant
Bit rate                                 : 192 kb/s
Channel(s)                               : 2 channels
Channel layout                           : L R
Sampling rate                            : 48.0 kHz
Frame rate                               : 31.250 FPS (1536 SPF)
Bit depth                                : 16 bits
Compression mode                         : Lossy
Stream size                              : 159 MiB (2%)
Title                                    : / 2.0 Ch / 192 kbps / ПД / AAASound
Language                                 : Ukrainian
Service kind                             : Complete Main
Default                                  : Yes
Forced                                   : Yes

Audio #2
ID                                       : 3
Format                                   :
Format/Info                              : Digital Theater Systems
Codec ID                                 : A_DTS
Duration                                 : 1 h 55 min
Bit rate mode                            : Constant
Bit rate                                 : 1 509 kb/s
Channel(s)                               : 6 channels
Channel layout                           : C L R Ls Rs LFE
Sampling rate                            : 48.0 kHz
Frame rate                               : 93.750 FPS (512 SPF)
Bit depth                                : 16 bits
Compression mode                         : Lossy
Stream size                              : 1.22 GiB (18%)
Title                                    : / 5.1 Ch / 1509 kbps / Original
Language                                 : French
Default                                  : No
Forced                                   : No

Text #1
ID                                       : 4
Format                                   : UTF-8
Codec ID                                 : S_TEXT/UTF8
Codec ID/Info                            : UTF-8 Plain Text
Duration                                 : 1 h 54 min
Bit rate                                 : 37 b/s
Count of elements                        : 1167
Stream size                              : 31.3 KiB (0%)
Title                                    : Full
Language                                 : English
Default                                  : No
Forced                                   : No

Text #2
ID                                       : 5
Format                                   : UTF-8
Codec ID                                 : S_TEXT/UTF8
Codec ID/Info                            : UTF-8 Plain Text
Duration                                 : 1 h 54 min
Bit rate                                 : 54 b/s
Count of elements                        : 1627
Stream size                              : 45.6 KiB (0%)
Title                                    : SDH
Language                                 : French
Default                                  : No
Forced                                   : No

Menu
00:00:00.000                             : :Chapter 01
00:12:02.138                             : :Chapter 02
00:22:56.792                             : :Chapter 03
00:32:05.298                             : :Chapter 04
00:40:23.880                             : :Chapter 05
00:51:37.594                             : :Chapter 06
01:01:49.289                             : :Chapter 07
01:12:54.662                             : :Chapter 08
01:19:21.131                             : :Chapter 09
01:28:48.949                             : :Chapter 10
01:39:49.567                             : :Chapter 11
01:49:54.421                             : :Chapter 12
Світлини




Джерело: &
Особиста оцінка: 0 - не дивився


 Трекер:    Зареєстрований   

Завантажити / скачати фільм українською



відео для новачків



 Зареєстрований:   2019-10-31 23:40
 Розмір:   6.9 GB 
 Оцінка фільму:   9.4/10 (Голосів: 10)
   
Ваш часовий пояс: GMT + 2 Години

Нова тема   Відповісти