Полярний Експрес / The Polar Express (2004) 1080p H.265 2xUkr/Eng | Sub Ukr/Eng

Нові коментарі

Нова тема   Відповісти
Автор Повідомлення
Anonymous 







2019-11-01 00:38  
Полярний Експрес / The Polar Express (2004) 1080p H.265 2xUkr/Eng | Sub Ukr/Eng

Полярний Експрес / The Polar Express (2004) 1080p H.265 2xUkr/Eng | Sub Ukr/Eng


Жанр: анімація, сімейний, пригодницький
Країна: США
Кінокомпанія: Castle Rock Entertainment, Shangri-La Entertainment, Playtone
Режисер: Роберт Земекіс
Ролі озвучують: Том Хенкс, Леслі Хартер Земекіс, Едді Дизен, Нона М. Гайї, Пітер Сколарі , Брендан Кінг, Енді Пеллик, Джош Елі

Сюжет:
Це історія про хлопчика, що сумнівається в існуванні Санта-Клауса. Потрапивши на таємничий "Полярний експрес", що прямує до Північного Полюса, він залишає позаду всі свої сумніви. І поки Різдвяна ніч опускається на сплячий світ, пасажири швидкісного потягу поспішають у Північний Полюс, зустрічаючи на своєму шляху пригоди та небезпеки, що підстерігають їх в темних лісах, зловісних горах і крижаній тундрі.

Тривалість: 01:40:06
Якість:

Відео:
кодек: H.265 (HEVC)
розмір кадру: 1920 x 826
бітрейт: 5 244 кб/с
бітова глибина: 10 біт

Увага! Перед завантаженням переконайтесь, що ваш пристрій відтворення (та/або ПЗ) підтримує H.265 (HEVC)

Аудіо # 1:
мова: українська
переклад: багатоголосий закадровий
кодек: AC-3 2.0
бітрейт: 192 кб/с

Аудіо # 2:
мова: українська
переклад: багатоголосий закадровий
кодек: AC-3 2.0
бітрейт: 192 кб/с

Аудіо # 3:
мова: англійська
переклад: оригінал
кодек: AC-3 5.1
бітрейт: 640 кб/с

Субтитри # 1: (Full)
мова: українська
тип: програмні (м'які)
формат: *.srt

Субтитри # 2: (Full)
мова: англійська
тип: програмні (м'які)
формат: *.srt


Info
Код:
General
Unique ID                                : 201923447551600835772036745492233420940 (0x97E90A99EF3855EADF1E2AAAF91B808C)
Complete name                            : The Polar Express (2004) 1080p H.265 [2xUKR_ENG] [Hurtom].
Format                                   :
Format version                           : Version 4
File size                                : 4.38 GiB
Duration                                 : 1 h 40 min
Overall bit rate                         : 6 269 kb/s
Movie name                               : Полярний Експрес / The Polar Express (2004)
Encoded date                             : UTC 2019-10-29 22:02:48
Writing application                      : v20.0.0 ('I Am The Sun') 64-bit
Writing library                          : libebml v1.3.5 + v1.4.8
Cover                                    : Yes
Attachments                              : Cover.jpg

Video
ID                                       : 1
Format                                   : HEVC
Format/Info                              : High Efficiency Video Coding
Format profile                           : Main [email protected]@High
Codec ID                                 : V_MPEGH/ISO/HEVC
Duration                                 : 1 h 40 min
Bit rate                                 : 5 244 kb/s
Width                                    : 1 920 pixels
Height                                   : 826 pixels
Display aspect ratio                     : 2.35:1
Frame rate mode                          : Constant
Frame rate                               : 23.976 (24000/1001) FPS
Color space                              : YUV
Chroma subsampling                       : 4:2:0
Bit depth                                : 10 bits
Bits/(Pixel*Frame)                       : 0.138
Stream size                              : 3.67 GiB (84%)
Title                                    : Полярний Експрес / The Polar Express (2004)
Writing library                          : x265 2.9+9-f74003e88622:[Windows][GCC 7.3.0][64 bit] 10bit
Encoding settings                        : cpuid=1111039 / frame-threads=13 / numa-pools=12 / wpp / no-pmode / no-pme / no-psnr / no-ssim / log-level=3 / input-csp=1 / input-res=1920x826 / interlace=0 / total-frames=0 / level-idc=41 / high-tier=1 / uhd-bd=0 / ref=5 / allow-non-conformance / no-repeat-headers / annexb / no-aud / no-hrd / info / hash=0 / no-temporal-layers / open-gop / min-keyint=24 / keyint=240 / gop-lookahead=0 / bframes=9 / b-adapt=2 / b-pyramid / bframe-bias=0 / rc-lookahead=60 / lookahead-slices=4 / scenecut=40 / radl=0 / no-intra-refresh / ctu=32 / min-cu-size=8 / rect / amp / max-tu-size=32 / tu-inter-depth=4 / tu-intra-depth=4 / limit-tu=1 / rdoq-level=2 / dynamic-rd=0.00 / no-ssim-rd / signhide / no-tskip / nr-intra=0 / nr-inter=0 / no-constrained-intra / no-strong-intra-smoothing / max-merge=4 / limit-refs=2 / limit-modes / me=3 / subme=7 / merange=57 / temporal-mvp / weightp / weightb / no-analyze-src-pics / deblock=-3:-3 / no-sao / no-sao-non-deblock / rd=6 / no-early-skip / no-rskip / no-fast-intra / no-tskip-fast / no-cu-lossless / no-b-intra / no-splitrd-skip / rdpenalty=0 / psy-rd=2.00 / psy-rdoq=1.00 / no-rd-refine / no-lossless / cbqpoffs=0 / crqpoffs=0 / rc=crf / crf=19.5 / qcomp=0.60 / qpstep=1 / stats-write=0 / stats-read=0 / vbv-maxrate=50000 / vbv-bufsize=50000 / vbv-init=0.9 / crf-max=30.0 / crf-min=0.0 / ipratio=1.40 / pbratio=1.30 / aq-mode=1 / aq-strength=0.90 / no-cutree / zone-count=0 / no-strict-cbr / qg-size=32 / no-rc-grain / qpmax=69 / qpmin=0 / no-const-vbv / sar=1 / overscan=0 / videoformat=5 / range=0 / colorprim=2 / transfer=2 / colormatrix=2 / chromaloc=0 / display-window=0 / max-cll=0,0 / min-luma=0 / max-luma=1023 / log2-max-poc-lsb=8 / vui-timing-info / vui-hrd-info / slices=1 / no-opt-qp-pps / no-opt-ref-list-length-pps / no-multi-pass-opt-rps / scenecut-bias=0.05 / no-opt-cu-delta-qp / no-aq-motion / no-hdr / no-hdr-opt / no-dhdr10-opt / no-idr-recovery-sei / analysis-reuse-level=5 / scale-factor=0 / refine-intra=0 / refine-inter=0 / refine-mv=0 / no-limit-sao / ctu-info=0 / no-lowpass-dct / refine-mv-type=0 / copy-pic=1 / max-ausize-factor=1.0 / no-dynamic-refine / no-single-sei
Default                                  : Yes
Forced                                   : No
Color range                              : Limited

Audio #1
ID                                       : 2
Format                                   : AC-3
Format/Info                              : Audio Coding 3
Commercial name                          : Dolby Digital
Codec ID                                 : A_AC3
Duration                                 : 1 h 39 min
Bit rate mode                            : Constant
Bit rate                                 : 192 kb/s
Channel(s)                               : 2 channels
Channel layout                           : L R
Sampling rate                            : 48.0 kHz
Frame rate                               : 31.250 FPS (1536 SPF)
Bit depth                                : 16 bits
Compression mode                         : Lossy
Delay relative to video                  : 500 ms
Stream size                              : 137 MiB (3%)
Title                                    : / 2.0 Ch / 192 kbps / БЗ / Inter
Language                                 : Ukrainian
Service kind                             : Complete Main
Default                                  : Yes
Forced                                   : Yes

Audio #2
ID                                       : 3
Format                                   : AC-3
Format/Info                              : Audio Coding 3
Commercial name                          : Dolby Digital
Codec ID                                 : A_AC3
Duration                                 : 1 h 39 min
Bit rate mode                            : Constant
Bit rate                                 : 192 kb/s
Channel(s)                               : 2 channels
Channel layout                           : L R
Sampling rate                            : 48.0 kHz
Frame rate                               : 31.250 FPS (1536 SPF)
Bit depth                                : 16 bits
Compression mode                         : Lossy
Delay relative to video                  : 516 ms
Stream size                              : 137 MiB (3%)
Title                                    : / 2.0 Ch / 192 kbps / БЗ / ICTV
Language                                 : Ukrainian
Service kind                             : Complete Main
Default                                  : No
Forced                                   : No

Audio #3
ID                                       : 4
Format                                   : AC-3
Format/Info                              : Audio Coding 3
Commercial name                          : Dolby Digital
Codec ID                                 : A_AC3
Duration                                 : 1 h 39 min
Bit rate mode                            : Constant
Bit rate                                 : 640 kb/s
Channel(s)                               : 6 channels
Channel layout                           : L R C LFE Ls Rs
Sampling rate                            : 48.0 kHz
Frame rate                               : 31.250 FPS (1536 SPF)
Bit depth                                : 16 bits
Compression mode                         : Lossy
Delay relative to video                  : 516 ms
Stream size                              : 457 MiB (10%)
Title                                    : / 5.1 Ch / 640 kbps / Original
Language                                 : English
Service kind                             : Complete Main
Default                                  : No
Forced                                   : No

Text #1
ID                                       : 5
Format                                   : UTF-8
Codec ID                                 : S_TEXT/UTF8
Codec ID/Info                            : UTF-8 Plain Text
Duration                                 : 1 h 38 min
Bit rate                                 : 49 b/s
Count of elements                        : 824
Stream size                              : 35.9 KiB (0%)
Title                                    : Full
Language                                 : Ukrainian
Default                                  : Yes
Forced                                   : No

Text #2
ID                                       : 6
Format                                   : UTF-8
Codec ID                                 : S_TEXT/UTF8
Codec ID/Info                            : UTF-8 Plain Text
Duration                                 : 1 h 30 min
Bit rate                                 : 45 b/s
Count of elements                        : 831
Stream size                              : 30.0 KiB (0%)
Title                                    : Full
Language                                 : English
Default                                  : No
Forced                                   : No

Menu
00:00:00.000                             : :Chapter 01
00:05:07.473                             : :Chapter 02
00:09:46.919                             : :Chapter 03
00:15:16.415                             : :Chapter 04
00:18:19.765                             : :Chapter 05
00:23:08.220                             : :Chapter 06
00:28:07.519                             : :Chapter 07
00:33:43.688                             : :Chapter 08
00:35:25.289                             : :Chapter 09
00:41:37.328                             : :Chapter 10
00:44:45.015                             : :Chapter 11
00:47:06.156                             : :Chapter 12
00:49:18.622                             : :Chapter 13
00:53:25.869                             : :Chapter 14
00:57:18.435                             : :Chapter 15
01:01:08.998                             : :Chapter 16
01:05:55.785                             : :Chapter 17
01:09:55.191                             : :Chapter 18
01:12:56.205                             : :Chapter 19
01:16:28.250                             : :Chapter 20
01:19:37.939                             : :Chapter 21
01:21:51.406                             : :Chapter 22
01:27:10.058                             : :Chapter 23
01:31:21.142                             : :Chapter 24
01:40:06.625                             : :Chapter 25
Світлини




Джерело: &
Особиста оцінка: 0 - не дивився


Срібний реліз (на рейтинг впливає 50% завантаженого)
 Трекер:    Зареєстрований   

Завантажити / скачати мультфільм українською



відео для новачків



 Зареєстрований:   2019-11-01 00:38
 Розмір:   4.38 GB 
 Оцінка мультфільму:   9.6/10 (Голосів: 10)
   
dimon-2018 
VIP


З нами з: 06.05.18
Востаннє: 29.09.20
Повідомлень: 491

2019-11-25 14:27  
Anonymous
український постер

Anonymous 







2019-11-25 22:45  
dimon-2018
Красота. Дякую!

eevviill 
Поважний учасник


З нами з: 13.08.08
Востаннє: 29.09.20
Повідомлень: 151

2020-09-29 11:47  
dimon-2018
Чого 2 С вкінці?

Ваш часовий пояс: GMT + 2 Години

Нова тема   Відповісти