Монахиня / The Nun (2018) 1080p H.265 Ukr/Eng | Sub Eng

Нові коментарі

Нова тема   Відповісти
Автор Повідомлення
Anonymous 







2019-11-01 00:33  
Монахиня / The Nun (2018) 1080p H.265 Ukr/Eng | Sub Eng

Монахиня / The Nun (2018) 1080p H.265 Ukr/Eng | Sub Eng


Жанр: жахи, трилер, детектив
Країна: США
Кінокомпанія: Atomic Monster,New Line Cinema,The Safran Company
Режисер: Корін Гарді / Corin Hardy
Актори: Деміан Бішир / Demián Bichir, Таісса Фарміга / Taissa Farmiga, Йонас Блоке / Jonas Bloquet, Бонні Ааронс / Bonnie Aarons, Інгрід Бісу / Ingrid Bisu, Шарлотта Гоуп / Charlotte Hope, Сандра Телес / Sandra Teles, Аугуст Матуро / August Maturo, Джек Фальк / Jack Falk, Лінетт Газа / Lynnette Gaza та інші

Сюжет:
Другий спін-оф фільму «Закляття». Коли молода монахиня вчиняє суїцид в усамітненому абатстві в Румунії, Ватикан відправляє двох священиків провести розслідування. Ризикуючи не лише власними життями, але й вірою та душею, вони стикаються зі страшною силою, демонічною монахинею, яка тероризувала родину у «Заклятті 2». І абатство стає страшним полем битви між живими та проклятими.

Тривалість: 01:36:33
Якість:

Відео:
кодек: H.265 (HEVC)
розмір кадру: 1920 x 800
бітрейт: 3 756 кб/с
бітова глибина: 10 біт

Увага! Перед завантаженням переконайтесь, що ваш пристрій відтворення (та/або ПЗ) підтримує H.265 (HEVC)

Аудіо # 1:
мова: українська
переклад: професійний дубльований
кодек: AC-3 2.0
бітрейт: 192 кб/с

Аудіо # 2:
мова: англійська
переклад: оригінал
кодек: AC-3 5.1
бітрейт: 640 кб/с

Субтитри # 1: (Forced)
мова: українська
тип: програмні (м'які)
формат: *.srt

Субтитри # 2-3: (Full, SDH)
мова: англійська
тип: програмні (м'які)
формат: *.srt


Info
Код:
General
Unique ID                                : 8606564973015891231893626850230185281 (0x679906A2AD4B78E015F8457D2D4AD41)
Complete name                            : The Nun (2018) 1080p H.265 [UKR_ENG] [Hurtom].
Format                                   :
Format version                           : Version 4
File size                                : 3.10 GiB
Duration                                 : 1 h 36 min
Overall bit rate                         : 4 590 kb/s
Movie name                               : Монахиня / The Nun (2018)
Encoded date                             : UTC 2019-10-29 22:46:37
Writing application                      : v20.0.0 ('I Am The Sun') 64-bit
Writing library                          : libebml v1.3.5 + v1.4.8
Cover                                    : Yes
Attachments                              : Cover.jpg

Video
ID                                       : 1
Format                                   : HEVC
Format/Info                              : High Efficiency Video Coding
Format profile                           : Main [email protected]@High
Codec ID                                 : V_MPEGH/ISO/HEVC
Duration                                 : 1 h 36 min
Bit rate                                 : 3 756 kb/s
Width                                    : 1 920 pixels
Height                                   : 800 pixels
Display aspect ratio                     : 2.40:1
Frame rate mode                          : Constant
Frame rate                               : 23.976 (24000/1001) FPS
Color space                              : YUV
Chroma subsampling                       : 4:2:0
Bit depth                                : 10 bits
Bits/(Pixel*Frame)                       : 0.102
Stream size                              : 2.53 GiB (82%)
Title                                    : Монахиня / The Nun (2018)
Writing library                          : x265 2.9+9-f74003e88622:[Windows][GCC 7.3.0][64 bit] 10bit
Encoding settings                        : cpuid=1111039 / frame-threads=13 / numa-pools=12 / wpp / no-pmode / no-pme / no-psnr / no-ssim / log-level=3 / input-csp=1 / input-res=1920x800 / interlace=0 / total-frames=0 / level-idc=41 / high-tier=1 / uhd-bd=0 / ref=5 / allow-non-conformance / no-repeat-headers / annexb / no-aud / no-hrd / info / hash=0 / no-temporal-layers / open-gop / min-keyint=24 / keyint=240 / gop-lookahead=0 / bframes=12 / b-adapt=2 / b-pyramid / bframe-bias=0 / rc-lookahead=60 / lookahead-slices=4 / scenecut=40 / radl=0 / no-intra-refresh / ctu=32 / min-cu-size=8 / rect / amp / max-tu-size=32 / tu-inter-depth=4 / tu-intra-depth=4 / limit-tu=1 / rdoq-level=2 / dynamic-rd=0.00 / no-ssim-rd / signhide / no-tskip / nr-intra=0 / nr-inter=0 / no-constrained-intra / no-strong-intra-smoothing / max-merge=4 / limit-refs=2 / limit-modes / me=3 / subme=7 / merange=57 / temporal-mvp / weightp / weightb / no-analyze-src-pics / deblock=-3:-3 / no-sao / no-sao-non-deblock / rd=6 / no-early-skip / no-rskip / no-fast-intra / no-tskip-fast / no-cu-lossless / no-b-intra / no-splitrd-skip / rdpenalty=0 / psy-rd=2.00 / psy-rdoq=1.00 / no-rd-refine / no-lossless / cbqpoffs=0 / crqpoffs=0 / rc=crf / crf=21.0 / qcomp=0.70 / qpstep=1 / stats-write=0 / stats-read=0 / vbv-maxrate=50000 / vbv-bufsize=50000 / vbv-init=0.9 / crf-max=30.0 / crf-min=0.0 / ipratio=1.40 / pbratio=1.30 / aq-mode=1 / aq-strength=0.90 / no-cutree / zone-count=0 / no-strict-cbr / qg-size=32 / no-rc-grain / qpmax=69 / qpmin=0 / no-const-vbv / sar=1 / overscan=0 / videoformat=5 / range=0 / colorprim=2 / transfer=2 / colormatrix=2 / chromaloc=0 / display-window=0 / max-cll=0,0 / min-luma=0 / max-luma=1023 / log2-max-poc-lsb=8 / vui-timing-info / vui-hrd-info / slices=1 / no-opt-qp-pps / no-opt-ref-list-length-pps / no-multi-pass-opt-rps / scenecut-bias=0.05 / no-opt-cu-delta-qp / no-aq-motion / no-hdr / no-hdr-opt / no-dhdr10-opt / no-idr-recovery-sei / analysis-reuse-level=5 / scale-factor=0 / refine-intra=0 / refine-inter=0 / refine-mv=0 / no-limit-sao / ctu-info=0 / no-lowpass-dct / refine-mv-type=0 / copy-pic=1 / max-ausize-factor=1.0 / no-dynamic-refine / no-single-sei
Language                                 : English
Default                                  : Yes
Forced                                   : No

Audio #1
ID                                       : 2
Format                                   : AC-3
Format/Info                              : Audio Coding 3
Commercial name                          : Dolby Digital
Codec ID                                 : A_AC3
Duration                                 : 1 h 36 min
Bit rate mode                            : Constant
Bit rate                                 : 192 kb/s
Channel(s)                               : 2 channels
Channel layout                           : L R
Sampling rate                            : 48.0 kHz
Frame rate                               : 31.250 FPS (1536 SPF)
Bit depth                                : 16 bits
Compression mode                         : Lossy
Stream size                              : 133 MiB (4%)
Title                                    : / 2.0 Ch / 192 kbps / ПД / iTunes
Language                                 : Ukrainian
Service kind                             : Complete Main
Default                                  : Yes
Forced                                   : Yes

Audio #2
ID                                       : 3
Format                                   : AC-3
Format/Info                              : Audio Coding 3
Commercial name                          : Dolby Digital
Codec ID                                 : A_AC3
Duration                                 : 1 h 36 min
Bit rate mode                            : Constant
Bit rate                                 : 640 kb/s
Channel(s)                               : 6 channels
Channel layout                           : L R C LFE Ls Rs
Sampling rate                            : 48.0 kHz
Frame rate                               : 31.250 FPS (1536 SPF)
Bit depth                                : 16 bits
Compression mode                         : Lossy
Stream size                              : 442 MiB (14%)
Title                                    : / 5.1 Ch / 640 kbps / Original
Language                                 : English
Service kind                             : Complete Main
Default                                  : No
Forced                                   : No

Text #1
ID                                       : 4
Format                                   : UTF-8
Codec ID                                 : S_TEXT/UTF8
Codec ID/Info                            : UTF-8 Plain Text
Duration                                 : 1 h 35 min
Bit rate                                 : 0 b/s
Count of elements                        : 19
Stream size                              : 672 Bytes (0%)
Title                                    : Forced
Language                                 : Ukrainian
Default                                  : Yes
Forced                                   : Yes

Text #2
ID                                       : 5
Format                                   : UTF-8
Codec ID                                 : S_TEXT/UTF8
Codec ID/Info                            : UTF-8 Plain Text
Duration                                 : 1 h 30 min
Bit rate                                 : 30 b/s
Count of elements                        : 639
Stream size                              : 20.4 KiB (0%)
Title                                    : Full
Language                                 : English
Default                                  : No
Forced                                   : No

Text #3
ID                                       : 6
Format                                   : UTF-8
Codec ID                                 : S_TEXT/UTF8
Codec ID/Info                            : UTF-8 Plain Text
Duration                                 : 1 h 35 min
Bit rate                                 : 38 b/s
Count of elements                        : 942
Stream size                              : 27.1 KiB (0%)
Title                                    : SDH
Language                                 : English
Default                                  : No
Forced                                   : No

Menu
00:00:00.000                             : en:00:00:00.000
00:08:42.772                             : en:00:08:42.772
00:17:55.074                             : en:00:17:55.074
00:29:17.506                             : en:00:29:17.506
00:38:05.033                             : en:00:38:05.033
00:48:49.802                             : en:00:48:49.802
00:58:49.192                             : en:00:58:49.192
01:09:16.944                             : en:01:09:16.944
01:18:14.565                             : en:01:18:14.565
01:24:18.637                             : en:01:24:18.637
01:32:30.295                             : en:01:32:30.295
Світлини




Джерело: &
Особиста оцінка: 8 - мені сподобалося


 Трекер:    Зареєстрований   

Завантажити / скачати фільм українською



відео для новачків



 Зареєстрований:   2019-11-01 00:33
 Розмір:   3.1 GB 
 Оцінка фільму:   9/10 (Голосів: 7)
   
Інші релізи
   Монахиня / The Nun (2018) 1080p Ukr/Eng | Sub Eng igor911  2 / 0   7.5 GB   2020-01-03 18:28 
   Монахиня / The Nun (2018) Remux 1080p Ukr/Eng | Sub Eng staf777  3 / 0   19.22 GB   2020-01-03 13:09 
   Монахиня / The Nun (2018) Ukr/Eng antik_2008  5 / 0   1.53 GB   2020-01-02 11:34 
   Монахиня / The Nun (2018) 720p Ukr/Eng | Sub Eng 11FrYkT  1 / 0   3.84 GB   2019-12-28 23:53 
   Монахиня / The Nun (2018) AVC Ukr/Eng | Sub Eng 11FrYkT  3 / 0   1.7 GB   2019-12-28 23:35 
hetzendorf 
Забанено
Забанено


З нами з: 23.07.15
Востаннє: 18.09.20
Повідомлень: 2876

2020-01-04 00:45  
Радий, що «Закляття» започаткувало епопею свіжих і якісних жахливчиків. Цей спіноф гідно впусується до неї.
10/10

Ваш часовий пояс: GMT + 2 Години

Нова тема   Відповісти