Казино / Casino (1995) UHD Remux 4K 2160p H.265 HDR Ukr/Eng | Sub Ukr/Eng

Нові коментарі

Нова тема   Відповісти
Автор Повідомлення
seasky 
Частий відвідувач


З нами з: 28.02.19
Востаннє: 24.09.20
Повідомлень: 29

2019-10-31 18:50  
Казино / Casino (1995) UHD Remux 4K 2160p H.265 HDR Ukr/Eng | Sub Ukr/Eng

Казино / Casino (1995) UHD Remux 4K 2160p H.265 HDR Ukr/Eng | Sub Ukr/Eng


Жанр: біографічний, кримінальний, драма
Країна: США, Франція

Top 250 Rated Movies: # 139

Кінокомпанія: Universal Pictures, Légende Entreprises, Syalis DA, De Fina-Cappa, GGG
Режисер: Мартін Скорсезе / Martin Scorsese
Актори: Роберт Де Ніро / Robert De Niro, Шерон Стоун / Sharon Stone, Джо Пеші / Joe Pesci, Джеймс Вудс / James Woods, Дон Ріклз / Don Rickles, Алан Кінґ / Alan King, Кевін Поллак / Kevin Pollak, Л. К. Джонс / L.Q. Jones, Дік Смотерз / Dick Smothers, Френк Вінсент / Frank Vincent

Сюжет:
Стрічка розповідає про Сема Ротстіна, який володів даром вгадувати результати різноманітних ігор: будь то перегони або карткові ігри. Такий талант не міг не зацікавити італійську мафію з усіма витікаючими наслідками. Боси дуже цінували Сема. Незважаючи на те, що він мав великі проблеми із законом, вони зробили його керуючим одного з казино в Лас-Вегасі. Він був, мабуть, найвпливовішою людиною в Вегасі, але його рай виявився не вічний ...


Тривалість: 02:58:23
Якість: 4K UltraHD Remux 2160p
Відео:


кодек: H.265 (HEVC)
розмір кадру: 3840 х 2160
бітрейт: 57,1 Mб/с
бітова глибина: 10 біт
кольоровий простір: BT.2020 (HDR)
Увага! Перед завантаженням переконайтесь, що ваш пристрій відтворення (та/або ПЗ) підтримує H.265 (HEVC)

Аудіо # 1:
мова: українська
переклад: багатоголосий закадровий |
кодек: 2.0
бітрейт: 192 кб/с

Аудіо # 2:
мова: англійська
переклад: оригінал
кодек: -HD МА 7.1
бітрейт: 3508 кб/с

Аудіо # 3:
мова: англійська
переклад: коментар Мартіна Скорсезе
кодек: 2.0
бітрейт: 192 кб/с

Субтитри: #1
мова: українська
тип: програмні (м'які), (повні)
формат: *.srt

Субтитри: #2-3
мова: англійська
тип: пререндерні
формат: *.pgs
Info
General
Unique ID : 44525784188041828871299009323497930730 (0x217F5AA6B95C5A9F00DE9B0EFB5BBFEA)
Complete name : E:\Casino (1995) UHD Remux 4K 2160p HDR 10 H.265 Ukr Eng {Hurtom].
Format :
Format version : Version 4
File size : 75.9 GiB
Duration : 2 h 58 min
Overall bit rate mode : Variable
Overall bit rate : 61.0 Mb/s
Movie name : Casino (1995) UHD Remux 4K 2160p HDR 10 H.265 Ukr Eng {Hurtom]
Encoded date : UTC 2019-10-31 13:02:51
Writing application : v38.0.0 ('The Silent Type') 64-bit
Writing library : libebml v1.3.9 + v1.5.2
Cover : Yes
Attachments : cover.jpg

Video
ID : 1
Format : HEVC
Format/Info : High Efficiency Video Coding
Format profile : Main [email protected]@High
HDR format : SMPTE ST 2086, HDR10 compatible
Codec ID : V_MPEGH/ISO/HEVC
Duration : 2 h 58 min
Bit rate : 57.1 Mb/s
Width : 3 840 pixels
Height : 2 160 pixels
Display aspect ratio : 16:9
Frame rate mode : Constant
Frame rate : 23.976 (24000/1001) FPS
Color space : YUV
Chroma subsampling : 4:2:0 (Type 2)
Bit depth : 10 bits
Bits/(Pixel*Frame) : 0.287
Stream size : 71.0 GiB (94%)
Title : Casino (1995) UHD Remux 4K 2160p HDR 10 H.265 Ukr Eng {Hurtom]
Language : English
Default : Yes
Forced : No
Color range : Limited
Color primaries : BT.2020
Transfer characteristics : PQ
Matrix coefficients : BT.2020 non-constant
Mastering display color pri : Display P3
Mastering display luminance : min: 0.0050 cd/m2, max: 1000 cd/m2
Maximum Content Light Level : 1000 cd/m2
Maximum Frame-Average Light : 243 cd/m2

Audio #1
ID : 2
Format : AC-3
Format/Info : Audio Coding 3
Commercial name : Dolby Digital
Codec ID : A_AC3
Duration : 2 h 58 min
Bit rate mode : Constant
Bit rate : 192 kb/s
Channel(s) : 2 channels
Channel layout : L R
Sampling rate : 48.0 kHz
Frame rate : 31.250 FPS (1536 SPF)
Bit depth : 16 bits
Compression mode : Lossy
Stream size : 245 MiB (0%)
Title : UKR, багатоголосий закадровий 1+1
Language : Ukrainian
Service kind : Complete Main
Default : Yes
Forced : No

Audio #2
ID : 3
Format : XLL X
Format/Info : Digital Theater Systems
Commercial name : -HD Master Audio
Codec ID : A_DTS
Duration : 2 h 58 min
Bit rate mode : Variable
Bit rate : 3 508 kb/s
Channel(s) : 8 channels
Channel(s)_Original : Object Based
ChannelLayout_Original : Object Based
Sampling rate : 48.0 kHz
Frame rate : 93.750 FPS (512 SPF)
Bit depth : 24 bits
Stream size : 4.37 GiB (6%)
Title : Original -HD Master Audio 7,1
Language : English
Default : No
Forced : No

Audio #3
ID : 4
Format : AC-3
Format/Info : Audio Coding 3
Commercial name : Dolby Digital
Codec ID : A_AC3
Duration : 2 h 58 min
Bit rate mode : Constant
Bit rate : 192 kb/s
Channel(s) : 2 channels
Channel layout : L R
Sampling rate : 48.0 kHz
Frame rate : 31.250 FPS (1536 SPF)
Bit depth : 16 bits
Compression mode : Lossy
Stream size : 245 MiB (0%)
Title : Original коментар Мартіна Скорсезе
Language : English
Service kind : Complete Main
Default : No
Forced : No

Text #1
ID : 5
Format : UTF-8
Codec ID : S_TEXT/UTF8
Codec ID/Info : UTF-8 Plain Text
Duration : 2 h 51 min
Bit rate : 146 b/s
Count of elements : 2781
Stream size : 184 KiB (0%)
Language : Ukrainian
Default : Yes
Forced : No

Text #2
ID : 6
Format : PGS
Muxing mode : zlib
Codec ID : S_HDMV/PGS
Codec ID/Info : Picture based subtitle format used on BDs/HD-DVDs
Duration : 2 h 55 min
Bit rate : 55.8 kb/s
Count of elements : 7286
Stream size : 70.0 MiB (0%)
Language : English
Default : No
Forced : No

Text #3
ID : 7
Format : PGS
Muxing mode : zlib
Codec ID : S_HDMV/PGS
Codec ID/Info : Picture based subtitle format used on BDs/HD-DVDs
Duration : 2 h 54 min
Bit rate : 71.3 kb/s
Count of elements : 6100
Stream size : 88.9 MiB (0%)
Language : English
Default : No
Forced : No

Menu
00:00:00.000 : en:"When You Love Someone..." (Main Titles)
00:04:55.462 : en:The Truth About Vegas
00:21:58.192 : en:Ginger
00:27:49.543 : en:Nicky Comes to Town
00:33:46.650 : en:Yokels
00:38:57.126 : en:The Long Shot
00:58:22.999 : en:Banned From Las Vegas
01:06:11.134 : en:The New Boss of Las Vegas
01:26:24.513 : en:Leakage
01:31:49.546 : en:The Worst Possible Time
02:00:29.305 : en:Ginger and the Lowlife
02:14:10.209 : en:Nicky and Ginger
02:28:31.486 : en:A Dangerous Situation
02:39:55.586 : en:Everybody Began to Tumble...
02:46:56.340 : en:Enough of Nicky
02:50:12.077 : en:The Town Will Never Be the Same (End Titles)
Скріншоти







Джерело: &
Українська доріжка: karvai0, Sando7, xslim, OlegCena, MAKAPOHHIK; українські субтитри: Lan.

Особиста оцінка: 10 - без зайвих вагань рекомендую всім!


Золотий реліз (завантажене не впливає на рейтинг)
 Трекер:    Зареєстрований   

Завантажити / скачати фільм українською



відео для новачків



 Зареєстрований:   2019-10-31 18:50
 Розмір:   75.95 GB 
 Оцінка фільму:   10/10 (Голосів: 7)
   
Інші релізи
   Казино / Casino (1995) 1080p H.265 Ukr/Eng | Sub Ukr/Eng -Star-Lord-  3 / 0   12.86 GB   2019-12-17 13:49 
   Казино / Casino (1995) AVC Ukr/Eng | Sub Ukr/Eng staf777  7 / 0   4.06 GB   2019-06-23 18:54 
   Казино / Casino (1995) Remux 1080p Ukr/Eng | Sub Ukr/Eng kryk-v.ya.  2 / 0   31.69 GB   2019-05-25 19:29 
   Казино / Casino (1995) 1080p Ukr/Eng | Sub Ukr/Eng Felodrein  2 / 0   16.44 GB   2018-01-11 11:33 
   Казино / Casino (1995) 720p Ukr/Eng | Sub Ukr/Eng igor911  3 / 1   9.15 GB   2014-06-30 11:09 
   Казино / Casino (1995) Ukr/Eng | Sub Ukr/Eng karvai0  5 / 0   2.9 GB   2014-06-30 00:53 
rudder1992 
Поважний учасник


З нами з: 26.02.17
Востаннє: 23.09.20
Повідомлень: 182

2020-04-02 06:19  
Навіть не очікував, але кіно дійсно сподобалось!
(Бо ''Гуд Фелас'' -ні!!!) До того ж, я не шанувальником Скорсезе.(бісить його немотивованна агресія персонажів і беспричинні лайки й насилля +приниження жінок( по крайній мірі тих, хто не заслуговує того)
По перше, фільм, має правильний посил. Подає героїв фільму такими, якими вони мають бути.
Усі персонажі отримують, як то кажуть, ,,по заслузі,,!(ну майже всіHappy)))
По друге, відмінна акторська гра і режиссура.
По третє, дуже цікавий сюжет та відображений в картині реалізм.
10 із 10
Коротше, шедевр у своєму жанрі.
-----
3 години пролетіли непомітно)
Цитата:

Ваш часовий пояс: GMT + 2 Години

Нова тема   Відповісти